Maquia: When the Promised Flower Blooms (2018) [1080p x265 HEVC 10bit BluRay Dual Audio AAC 5.1] [Prof]

Category:
Date:
2020-06-30 05:05 UTC
Submitter:
Seeders:
19
Information:
No information.
Leechers:
3
File size:
8.3 GiB
Completed:
450
Info hash:
f304723a80c4ce576699ec9e1012d3110885089b
Format : Matroska Format version : Version 4 File size : 8.28 GiB Duration : 1 h 54 min Overall bit rate : 10.3 Mb/s Encoded date : UTC 2020-06-30 04:08:33 Writing application : mkvmerge v41.0.0 ('Smarra') 64-bit Writing library : libebml v1.3.9 + libmatroska v1.5.2 Video ID : 1 Format : HEVC Format/Info : High Efficiency Video Coding Format profile : Main [email protected]@Main Codec ID : V_MPEGH/ISO/HEVC Duration : 1 h 54 min Bit rate : 8 286 kb/s Width : 1 920 pixels Height : 1 080 pixels Display aspect ratio : 16:9 Frame rate mode : Constant Frame rate : 23.976 (24000/1001) FPS Color space : YUV Chroma subsampling : 4:2:0 Bit depth : 10 bits Bits/(Pixel*Frame) : 0.167 Stream size : 6.65 GiB (80%) Writing library : x265 3.4+1-7b120308dc64:[Windows][MSVC 1926][64 bit] 10bit Encoding settings : cpuid=1111039 / frame-threads=3 / numa-pools=12 / wpp / no-pmode / no-pme / no-psnr / no-ssim / log-level=2 / input-csp=1 / input-res=1920x1080 / interlace=0 / total-frames=165168 / level-idc=0 / high-tier=1 / uhd-bd=0 / ref=4 / no-allow-non-conformance / no-repeat-headers / annexb / no-aud / no-hrd / info / hash=0 / no-temporal-layers / open-gop / min-keyint=23 / keyint=250 / gop-lookahead=0 / bframes=8 / b-adapt=2 / b-pyramid / bframe-bias=0 / rc-lookahead=80 / lookahead-slices=6 / scenecut=40 / hist-scenecut=0 / radl=0 / no-splice / no-intra-refresh / ctu=64 / min-cu-size=8 / rect / no-amp / max-tu-size=32 / tu-inter-depth=1 / tu-intra-depth=1 / limit-tu=0 / rdoq-level=2 / dynamic-rd=0.00 / no-ssim-rd / signhide / no-tskip / nr-intra=0 / nr-inter=0 / no-constrained-intra / strong-intra-smoothing / max-merge=3 / limit-refs=3 / limit-modes / me=3 / subme=3 / merange=57 / temporal-mvp / no-frame-dup / no-hme / weightp / no-weightb / no-analyze-src-pics / deblock=0:0 / sao / no-sao-non-deblock / rd=4 / selective-sao=4 / no-early-skip / rskip / no-fast-intra / no-tskip-fast / no-cu-lossless / no-b-intra / no-splitrd-skip / rdpenalty=0 / psy-rd=2.00 / psy-rdoq=1.00 / no-rd-refine / no-lossless / cbqpoffs=0 / crqpoffs=0 / rc=crf / crf=18.0 / qcomp=0.60 / qpstep=4 / stats-write=0 / stats-read=0 / ipratio=1.40 / pbratio=1.30 / aq-mode=3 / aq-strength=1.00 / cutree / zone-count=0 / no-strict-cbr / qg-size=32 / no-rc-grain / qpmax=69 / qpmin=0 / no-const-vbv / sar=0 / overscan=0 / videoformat=5 / range=0 / colorprim=2 / transfer=2 / colormatrix=2 / chromaloc=0 / display-window=0 / cll=0,0 / min-luma=0 / max-luma=1023 / log2-max-poc-lsb=8 / vui-timing-info / vui-hrd-info / slices=1 / no-opt-qp-pps / no-opt-ref-list-length-pps / no-multi-pass-opt-rps / scenecut-bias=0.05 / hist-threshold=0.01 / no-opt-cu-delta-qp / no-aq-motion / no-hdr10 / no-hdr10-opt / no-dhdr10-opt / no-idr-recovery-sei / analysis-reuse-level=0 / analysis-save-reuse-level=0 / analysis-load-reuse-level=0 / scale-factor=0 / refine-intra=0 / refine-inter=0 / refine-mv=1 / refine-ctu-distortion=0 / no-limit-sao / ctu-info=0 / no-lowpass-dct / refine-analysis-type=0 / copy-pic=1 / max-ausize-factor=1.0 / no-dynamic-refine / no-single-sei / no-hevc-aq / no-svt / no-field / qp-adaptation-range=1.00 / no-scenecut-aware-qpconformance-window-offsets / right=0 / bottom=0 / decoder-max-rate=0 Default : Yes Forced : No Audio #1 ID : 2 Format : AAC LC Format/Info : Advanced Audio Codec Low Complexity Codec ID : A_AAC-2 Duration : 1 h 54 min Bit rate : 911 kb/s Channel(s) : 6 channels Channel layout : C L R Ls Rs LFE Sampling rate : 48.0 kHz Frame rate : 46.875 FPS (1024 SPF) Compression mode : Lossy Delay relative to video : 145 ms Stream size : 746 MiB (9%) Language : English Default : Yes Forced : No Audio #2 ID : 3 Format : AAC LC Format/Info : Advanced Audio Codec Low Complexity Codec ID : A_AAC-2 Duration : 1 h 54 min Bit rate : 912 kb/s Channel(s) : 6 channels Channel layout : C L R Ls Rs LFE Sampling rate : 48.0 kHz Frame rate : 46.875 FPS (1024 SPF) Compression mode : Lossy Delay relative to video : 195 ms Stream size : 747 MiB (9%) Language : Japanese Default : No Forced : No Text #1 ID : 4 Format : PGS Muxing mode : zlib Codec ID : S_HDMV/PGS Codec ID/Info : Picture based subtitle format used on BDs/HD-DVDs Duration : 1 h 37 min Bit rate : 884 b/s Count of elements : 33 Stream size : 628 KiB (0%) Title : Signs & Songs Language : English Default : Yes Forced : No Text #2 ID : 5 Format : PGS Muxing mode : zlib Codec ID : S_HDMV/PGS Codec ID/Info : Picture based subtitle format used on BDs/HD-DVDs Duration : 1 h 53 min Bit rate : 82.5 kb/s Count of elements : 4534 Stream size : 67.1 MiB (1%) Title : English Custom JPBD Language : English Default : No Forced : No Text #3 ID : 6 Format : PGS Muxing mode : zlib Codec ID : S_HDMV/PGS Codec ID/Info : Picture based subtitle format used on BDs/HD-DVDs Duration : 1 h 52 min Bit rate : 25.3 kb/s Count of elements : 2386 Stream size : 20.4 MiB (0%) Language : English Default : No Forced : No Text #4 ID : 7 Format : PGS Muxing mode : zlib Codec ID : S_HDMV/PGS Codec ID/Info : Picture based subtitle format used on BDs/HD-DVDs Duration : 1 h 53 min Bit rate : 36.6 kb/s Count of elements : 1977 Stream size : 29.9 MiB (0%) Title : Dubtiles Language : English Default : No Forced : No Text #5 ID : 8 Format : PGS Muxing mode : zlib Codec ID : S_HDMV/PGS Codec ID/Info : Picture based subtitle format used on BDs/HD-DVDs Duration : 1 h 53 min Bit rate : 31.7 kb/s Count of elements : 2882 Stream size : 25.8 MiB (0%) Title : Dubtiles LE Edition Language : English Default : No Forced : No Text #6 ID : 9 Format : PGS Muxing mode : zlib Codec ID : S_HDMV/PGS Codec ID/Info : Picture based subtitle format used on BDs/HD-DVDs Duration : 1 h 53 min Bit rate : 328 kb/s Count of elements : 22128 Stream size : 267 MiB (3%) Language : Japanese Default : No Forced : No

File list

  • Maquia - When the Promised Flower Blooms (2018) [1080p x265 HEVC 10bit BluRay Dual Audio AAC 5.1] [Prof].mkv (8.3 GiB)
Prof never disappoints :) Anyway can you I mean shirk the size close to 3-4gigs 😅 Not complaining just an request

Prof (uploader)

User
@frost_16 nope, this is the size it should be
the more approximate size is somewhere around 50 gigs
Thank you! been searching for good quality of these for quite awhile
@Prof Thank you so much <3
@prof loving these uploads. Are you doing any non-anime stuff elsewhere?
I think he uploads on RARBG. I saw some Star Wars movies with the Prof tag.

Prof (uploader)

User
@__frigg__ this is the only public site I upload to these days, if my stuff is on a public site I didn't put it there, idc that it is there I just don't want to deal with the public sites anymore, I've got a soft spot for nyaa, I'd probably upload on kickass if that still existed, loved that site too
@Geonode AY i will be that guy but it's around 40

DOS

User
@Prof Can you please do ‘Perfect Blue’ & ‘Millennium Actress’ any soon? I don’t find any decent version of these movies. Sorry for the repeated comments. Totally appreciate your effort.
I totally appreciate your efforts [Prof], but I don't understand the recent infatuation from everyone around the use of HEVC for 1080p in a time when disk space and bandwidth are relatively cheap. HEVC was created for higher resolution 4K, and it adds too much softness to lower resolution 1080p. HEVC is the Viagra of encoding - not being used for its original purpose (heart medication) - with a tradeoff of less bloat in this case.
When will you upload hunter x hunter vol.7 blu ray
@FortressMaximus Not everyone can afford relatively cheap, and not everyone has unlimited bandwidth. and most importantly *not everyone cares*
@FortressMaximus So by your logic pacemakers shouldn't be used to prevent people from potentially dying because its original purpose was to help record fast heart sounds?