Akame ga Kill! [ZECHS] [Dual Audio] [HEVC] [BDRip] [HD 1080p]

Category:
Date:
2020-06-30 08:59 UTC
Submitter:
Seeders:
3
Information:
No information.
Leechers:
8
File size:
29.5 GiB
Completed:
53
Info hash:
7d909c46630bc6541c2c54227cfae76abfb2c67a
**SOURCES:** **Video:** Snow-Raws **Audio:** BDMV **Subtitles:** BDMV **_____________________________** General Unique ID : 111286153652908304596588046237920696215 (0x53B8EEFE8C130CBE2106323C51949797) Complete name : Akame ga Kill! - S01E01 - Kill the Darkness.mkv Format : Matroska Format version : Version 4 / Version 2 File size : 1.20 GiB Duration : 23 min 41 s Overall bit rate mode : Variable Overall bit rate : 7 235 kb/s Encoded by : ZECHS Encoded date : UTC 2020-06-27 12:39:44 Writing application : mkvmerge v47.0.0 ('Black Flag') 64-bit Writing library : libebml v1.3.10 + libmatroska v1.5.2 / Lavf57.83.100 Video ID : 1 Format : HEVC Format/Info : High Efficiency Video Coding Format profile : Main [email protected]@Main Codec ID : V_MPEGH/ISO/HEVC Duration : 23 min 41 s Bit rate : 4 177 kb/s Width : 1 920 pixels Height : 1 080 pixels Display aspect ratio : 16:9 Frame rate mode : Constant Frame rate : 23.976 (24000/1001) FPS Color space : YUV Chroma subsampling : 4:2:0 Bit depth : 10 bits Bits/(Pixel*Frame) : 0.084 Stream size : 708 MiB (58%) Writing library : x265 3.1+5-9c5c9cef2a86:[Windows][GCC 9.1.0][64 bit] 10bit Encoding settings : cpuid=1111039 / frame-threads=3 / numa-pools=12 / wpp / no-pmode / no-pme / no-psnr / no-ssim / log-level=2 / input-csp=1 / input-res=1920x1080 / interlace=0 / total-frames=0 / level-idc=0 / high-tier=1 / uhd-bd=0 / ref=4 / no-allow-non-conformance / no-repeat-headers / annexb / no-aud / no-hrd / info / hash=0 / no-temporal-layers / no-open-gop / min-keyint=1 / keyint=324 / gop-lookahead=0 / bframes=8 / b-adapt=2 / b-pyramid / bframe-bias=0 / rc-lookahead=80 / lookahead-slices=0 / scenecut=40 / radl=0 / no-splice / no-intra-refresh / ctu=32 / min-cu-size=8 / no-rect / no-amp / max-tu-size=32 / tu-inter-depth=2 / tu-intra-depth=2 / limit-tu=2 / rdoq-level=2 / dynamic-rd=0.00 / no-ssim-rd / signhide / no-tskip / nr-intra=0 / nr-inter=0 / no-constrained-intra / no-strong-intra-smoothing / max-merge=3 / limit-refs=2 / no-limit-modes / me=3 / subme=4 / merange=57 / temporal-mvp / weightp / no-weightb / no-analyze-src-pics / deblock=-1:-1 / no-sao / no-sao-non-deblock / rd=6 / early-skip / rskip / no-fast-intra / no-tskip-fast / no-cu-lossless / b-intra / no-splitrd-skip / rdpenalty=0 / psy-rd=2.00 / psy-rdoq=0.90 / no-rd-refine / no-lossless / cbqpoffs=-1 / crqpoffs=-1 / rc=crf / crf=15.7 / qcomp=0.65 / qpstep=4 / stats-write=0 / stats-read=0 / ipratio=1.40 / pbratio=1.30 / aq-mode=3 / aq-strength=0.90 / cutree / zone-count=0 / no-strict-cbr / qg-size=32 / no-rc-grain / qpmax=69 / qpmin=0 / no-const-vbv / sar=0 / overscan=0 / videoformat=5 / range=0 / colorprim=2 / transfer=2 / colormatrix=1 / chromaloc=0 / display-window=0cll=0,0 / min-luma=0 / max-luma=1023 / log2-max-poc-lsb=8 / vui-timing-info / vui-hrd-info / slices=1 / opt-qp-pps / opt-ref-list-length-pps / no-multi-pass-opt-rps / scenecut-bias=0.05 / no-opt-cu-delta-qp / no-aq-motion / no-hdr / no-hdr-opt / no-dhdr10-opt / no-idr-recovery-sei / analysis-reuse-level=5 / scale-factor=0 / refine-intra=0 / refine-inter=0 / refine-mv=0 / refine-ctu-distortion=0 / no-limit-sao / ctu-info=0 / no-lowpass-dct / refine-analysis-type=0 / copy-pic=1 / max-ausize-factor=1.0 / no-dynamic-refine / no-single-sei / no-hevc-aq / no-svt / no-field / qp-adaptation-range=1.00 Language : Japanese Default : Yes Forced : No Color range : Limited Matrix coefficients : BT.709 Audio #1 ID : 2 Format : FLAC Format/Info : Free Lossless Audio Codec Codec ID : A_FLAC Duration : 23 min 41 s Bit rate mode : Variable Bit rate : 1 561 kb/s Channel(s) : 6 channels Channel positions : Front: L C R, Side: L R, LFE Sampling rate : 48.0 kHz Frame rate : 10.417 FPS (4608 SPF) Bit depth : 16 bits Stream size : 264 MiB (22%) Writing library : Lavc57.107.100 flac Language : English Default : Yes Forced : No Audio #2 ID : 3 Format : FLAC Format/Info : Free Lossless Audio Codec Codec ID : A_FLAC Duration : 23 min 41 s Bit rate mode : Variable Bit rate : 1 481 kb/s Channel(s) : 2 channels Channel positions : Front: L R Sampling rate : 48.0 kHz Frame rate : 10.417 FPS (4608 SPF) Bit depth : 24 bits Stream size : 251 MiB (20%) Writing library : Lavc57.107.100 flac Language : Japanese Default : No Forced : No Text #1 ID : 4 Format : PGS Muxing mode : zlib Codec ID : S_HDMV/PGS Codec ID/Info : Picture based subtitle format used on BDs/HD-DVDs Duration : 21 min 8 s Bit rate : 4 032 b/s Count of elements : 39 Stream size : 624 KiB (0%) Title : Signs & Songs Language : English Default : Yes Forced : No Text #2 ID : 5 Format : PGS Muxing mode : zlib Codec ID : S_HDMV/PGS Codec ID/Info : Picture based subtitle format used on BDs/HD-DVDs Duration : 23 min 29 s Bit rate : 60.7 kb/s Count of elements : 648 Stream size : 10.2 MiB (1%) Title : Full Subtitles Language : English Default : No Forced : No Menu 00:00:00.000 : :Avant 00:02:19.013 : :OP 00:03:49.020 : :Part A 00:13:17.963 : :Part B 00:21:54.938 : :ED 00:23:24.945 : :Next

File list

  • Akame ga Kill! [ZECHS] [Dual Audio] [HEVC] [BDRip] [HD 1080p]
    • Akame ga Kill! - S01E01 - Kill the Darkness.mkv (1.2 GiB)
    • Akame ga Kill! - S01E02 - Kill the Authority.mkv (1.2 GiB)
    • Akame ga Kill! - S01E03 - Kill the Grudge.mkv (1.3 GiB)
    • Akame ga Kill! - S01E04 - Kill the Imperial Arms User.mkv (1.2 GiB)
    • Akame ga Kill! - S01E05 - Kill the Empty Dream.mkv (1.2 GiB)
    • Akame ga Kill! - S01E06 - Kill Absolute Justice.mkv (1.7 GiB)
    • Akame ga Kill! - S01E07 - Kill the Three Beasts - First Half.mkv (1.1 GiB)
    • Akame ga Kill! - S01E08 - Kill the Three Beasts - Second Half.mkv (1.4 GiB)
    • Akame ga Kill! - S01E09 - Kill the Lust for Combat.mkv (1.2 GiB)
    • Akame ga Kill! - S01E10 - Kill the Seduction.mkv (1.2 GiB)
    • Akame ga Kill! - S01E11 - Kill the Mad Scientist.mkv (1.2 GiB)
    • Akame ga Kill! - S01E12 - Kill the New Recruits.mkv (1.2 GiB)
    • Akame ga Kill! - S01E13 - Kill the Hinderance.mkv (1.2 GiB)
    • Akame ga Kill! - S01E14 - Kill the Giant Dangerous Beast.mkv (1.2 GiB)
    • Akame ga Kill! - S01E15 - Kill the Religion.mkv (1.1 GiB)
    • Akame ga Kill! - S01E16 - Kill the Dolls.mkv (1.4 GiB)
    • Akame ga Kill! - S01E17 - Kill the Curse.mkv (1.2 GiB)
    • Akame ga Kill! - S01E18 - Kill the Demons.mkv (1.1 GiB)
    • Akame ga Kill! - S01E19 - Kill Fate.mkv (1.3 GiB)
    • Akame ga Kill! - S01E20 - Kill Pandemonium.mkv (1.2 GiB)
    • Akame ga Kill! - S01E21 - Kill the Despair.mkv (1.2 GiB)
    • Akame ga Kill! - S01E22 - Kill the Little Sister.mkv (1.1 GiB)
    • Akame ga Kill! - S01E23 - Kill the Emperor.mkv (1.2 GiB)
    • Akame ga Kill! - S01E24 - Akame ga Kill! The Final Battle.mkv (1.3 GiB)
I miss this show :)
yeah good encode but i hate characters evolving around akame they killed every one of them so i drop it