Voltage Fighter Gowcaizer OVA 1-3 1996 480p DVDHD Restored

Category:
Date:
2020-06-30 10:56 UTC
Submitter:
Seeders:
6
Information:
No information.
Leechers:
0
File size:
2.1 GiB
Completed:
251
Info hash:
ca91df6dafe5fb2f75358f10a0a39a5909bbbd8e
Source: CE DVD RIp. Filtered and restored. Dual Audio and Subbed. Video ID : 1 Format : AVC Format/Info : Advanced Video Codec Format profile : [email protected] Format settings : CABAC / 6 Ref Frames Format settings, CABAC : Yes Format settings, Reference frames : 6 frames Codec ID : V_MPEG4/ISO/AVC Duration : 1 h 44 min Bit rate : 2 247 kb/s Width : 640 pixels Height : 480 pixels Display aspect ratio : 4:3 Frame rate mode : Constant Frame rate : 23.976 FPS Color space : YUV Chroma subsampling : 4:2:0 Bit depth : 8 bits Scan type : Progressive Bits/(Pixel*Frame) : 0.305 Stream size : 1.65 GiB (80%) Writing library : x264 core 160 Encoding settings : cabac=1 / ref=6 / deblock=1:1:1 / analyse=0x3:0x113 / me=hex / subme=7 / psy=1 / psy_rd=0.40:0.00 / mixed_ref=1 / me_range=16 / chroma_me=1 / trellis=1 / 8x8dct=1 / cqm=0 / deadzone=21,11 / fast_pskip=1 / chroma_qp_offset=-2 / threads=12 / lookahead_threads=2 / sliced_threads=0 / nr=0 / decimate=1 / interlaced=0 / bluray_compat=0 / constrained_intra=0 / bframes=5 / b_pyramid=2 / b_adapt=1 / b_bias=0 / direct=1 / weightb=1 / open_gop=0 / weightp=2 / keyint=250 / keyint_min=23 / scenecut=40 / intra_refresh=0 / rc_lookahead=40 / rc=crf / mbtree=1 / crf=14.0 / qcomp=0.60 / qpmin=0 / qpmax=69 / qpstep=4 / ip_ratio=1.40 / aq=1:0.60 Default : Yes Forced : No Audio #1 ID : 2 Format : AC-3 Format/Info : Audio Coding 3 Commercial name : Dolby Digital Codec ID : A_AC3 Duration : 1 h 44 min Bit rate mode : Constant Bit rate : 256 kb/s Channel(s) : 2 channels Channel layout : L R Sampling rate : 48.0 kHz Frame rate : 31.250 FPS (1536 SPF) Compression mode : Lossy Stream size : 192 MiB (9%) Service kind : Complete Main Default : Yes Forced : No Audio #2 ID : 3 Format : MPEG Audio Format version : Version 1 Format profile : Layer 3 Format settings : Joint stereo Codec ID : A_MPEG/L3 Codec ID/Hint : MP3 Duration : 1 h 44 min Bit rate mode : Constant Bit rate : 320 kb/s Channel(s) : 2 channels Sampling rate : 48.0 kHz Frame rate : 41.554 FPS (1155 SPF) Compression mode : Lossy Delay relative to video : 16 ms Stream size : 238 MiB (11%) Default : No Forced : No Text ID : 4 Format : UTF-8 Codec ID : S_TEXT/UTF8 Codec ID/Info : UTF-8 Plain Text Duration : 1 h 42 min Bit rate : 62 b/s Count of elements : 1453 Stream size : 46.5 KiB (0%) Default : Yes Forced : No

File list

  • Voltage.Fighter.Gowcaizer.OVA.1996.480p.DVDHD.1-3.mkv (2.1 GiB)
So awesome, looking for it for several years! Merci!
Thanks for also including it with English subs!
This is, dare i say, a masterpiece. Thanks.

DVD2HD (uploader)

User
Thanks. More Masami Oobari coming up
Filtered? Yes, to the extreme Restored? lol No, the original video has been destroyed and now looks like wax. The DNR is just far too heavy.
Thank you! loving your releases so far!