[Mushin] Super Fishing Grander Musashi - 03 (AniTV 640x480 AVC AAC).mkv

Category:
Date:
2020-06-30 14:26 UTC
Submitter:
Anonymous
Seeders:
7
Information:
No information.
Leechers:
0
File size:
417.5 MiB
Completed:
73
Info hash:
81dc8b58a42b23695411a0f927ab3c6278001c5e
Warning & Explain !!! ![](https://cdn-eu.anidb.net/images/main/147084.jpg) [Mushin] Super Fishing Grander Musashi - 03 (AniTV 640x480 AVC AAC).mkv Let's continue to have fun with Grander Musashi Espisode 03. This was the Legenders in an old anime and a part of my childhood. I just did AMATEUR SUBBED for myself and SHARE FOR FRIENDS. but It's FREE CONTENT for SHARING to Everyone. I ripped Eng subbed from old anime (chinese dub) to baseline for resync time and edit some sentence to matching japan dub and add translation example next episode. Thanks for Pie-Rot Fansubs in old anime For example( in Ass file Subject Style edit = i did edit) edit many line sentence to matching japan dub If I have to edit many line sentence which to used long time to check. Dialogue: 0,0:02:17.43,0:02:20.43,Edit,,0,0,0,,Some lures look like earthworm\Nand others look like catfish. Dialogue: 0,0:02:20.47,0:02:24.29,Edit,,0,0,0,,{As long as it's things that big fishes eat\Nthen there lures available of them}In other words, it's the favorite food of the Bass. Dialogue: 0,0:02:55.94,0:02:57.90,Edit,,0,0,0,,{If you don't know anything, don't ask!}It's mean a lightweight lure. Dialogue: 0,0:02:59.31,0:03:01.14,Edit,,0,0,0,,{Are you going to change and use a sand worm?}You can't throw with no sinker? Dialogue: 0,0:15:28.29,0:15:30.25,Edit,,0,0,0,,I forgot{ about this Grander Fish. } to enter Chaos data. Dialogue: 0,0:15:32.04,0:15:33.48,Edit,,0,0,0,,So what does {that}Chaos mean? Dialogue: 0,0:15:33.80,0:15:35.14,Edit,,0,0,0,,{Based on the data}Confused variable. Of course I used tools to help translation maybe wrong Grammar.(even used best software grammarly and ginger software and other) TL: My Skill + Advice + (Google TL, AI TL,Book Eng& Japan, Web Dic.&Grammar, Internet tool, Etc.) TLC: Mushin Edit: Mushin Timing: Mushin QC: Mushin "Don't worry for a VOLUNTEER who does something willingly and without being forced or paid to do it." Sorry for any inaccuracies, English is not my first language. Yes, please! Don’t wait for improve it. Also you are feel free to use, modify edit or whatever with my releases. I hope Fan Anime this Enjoy & Fun PS. It for people who " really need ". Go ahead. for who need subbed only please find by yourself at (https://animetosho.org/) with name file or Mushin Video : copy full I have to thank you so much for that the video quality. credit : [YES] Super Fishing Grander Musashi - 01-25 END (AniTV 640x480 AVC AAC) Format : AVC Duration : 21 min 55 s Bit rate : 2 494 kb/s Width : 640 pixels Height : 480 pixels Frame rate : 29.970 (30000/1001) FPS Bit depth : 8 bits Stream size : 391 MiB (94%) Audio Format : AAC LC Bit rate : 128 kb/s Channel(s) : 2 channels Stream size : 20.1 MiB (5%) Language : Japanese Txt Sub Format : ASS Title : Edit- PieRot Language : English

File list

  • [Mushin] Super Fishing Grander Musashi - 03 (AniTV 640x480 AVC AAC).mkv (417.5 MiB)
oh wow people still remember this
Thank you so much for your effort, really appreciate it. This anime really brings back childhood memory. And also thank you YES for the amazing raws.
Does someone know do we have something new related to Grander Musashi? I saw Musashi on magazine cover for April 2020 Korokoro Aniki and April 2020 Lure Magazine.
@Eszett, I think I actually saw some manga released for Grander Musashi this year. There was something released in March/April and again July I suppose. Might have the dates wrong, but there is definitely some new chapters / manga released.
Thank you so much for your effort here. I am glad to see someone going through this effort. Do you mind sharing the complete subtitles for all episodes in a zip file for those interested?
@vishu_fy > PS. It for people who " really need ". Go ahead. > for who need subbed only please find by yourself at (https://animetosho.org/) with name file or Mushin