KonoSuba.S01.1080p.Blu-Ray.10-Bit.Dual-Audio.LPCM.x265-iAHD

Category:
Date:
2020-06-30 21:15 UTC
Submitter:
Seeders:
10
Information:
No information.
Leechers:
4
File size:
21.0 GiB
Completed:
163
Info hash:
abe17c5a2b2134937403d973174d7039dcbfc070
Video ID : 1 Format : HEVC Format/Info : High Efficiency Video Coding Format profile : Main [email protected]@Main Codec ID : V_MPEGH/ISO/HEVC Duration : 25 min 11 s Bit rate : 8 427 kb/s Width : 1 920 pixels Height : 1 080 pixels Display aspect ratio : 16:9 Frame rate mode : Constant Frame rate : 23.976 (24000/1001) FPS Color space : YUV Chroma subsampling : 4:2:0 Bit depth : 10 bits Bits/(Pixel*Frame) : 0.170 Stream size : 1.48 GiB (73%) Writing library : x265 3.2.1+1-b5c86a64bbbe:[Windows][GCC 9.2.0][64 bit] 10bit Encoding settings : cpuid=1111039 / frame-threads=4 / numa-pools=16 / wpp / no-pmode / no-pme / no-psnr / no-ssim / log-level=2 / input-csp=1 / input-res=1920x1080 / interlace=0 / total-frames=0 / level-idc=0 / high-tier=1 / uhd-bd=0 / ref=6 / no-allow-non-conformance / no-repeat-headers / annexb / no-aud / no-hrd / info / hash=0 / no-temporal-layers / open-gop / min-keyint=24 / keyint=240 / gop-lookahead=0 / bframes=16 / b-adapt=2 / b-pyramid / bframe-bias=0 / rc-lookahead=50 / lookahead-slices=4 / scenecut=40 / radl=0 / no-splice / no-intra-refresh / ctu=32 / min-cu-size=8 / no-rect / no-amp / max-tu-size=32 / tu-inter-depth=1 / tu-intra-depth=3 / limit-tu=0 / rdoq-level=2 / dynamic-rd=0.00 / no-ssim-rd / signhide / tskip / nr-intra=0 / nr-inter=0 / no-constrained-intra / no-strong-intra-smoothing / max-merge=3 / limit-refs=3 / limit-modes / me=3 / subme=3 / merange=57 / temporal-mvp / no-hme / weightp / no-weightb / no-analyze-src-pics / deblock=1:1 / no-sao / no-sao-non-deblock / rd=4 / selective-sao=0 / no-early-skip / rskip / no-fast-intra / tskip-fast / no-cu-lossless / no-b-intra / no-splitrd-skip / rdpenalty=0 / psy-rd=0.80 / psy-rdoq=2.00 / no-rd-refine / no-lossless / cbqpoffs=0 / crqpoffs=0 / rc=crf / crf=16.0 / qcomp=0.60 / qpstep=4 / stats-write=0 / stats-read=0 / ipratio=1.40 / pbratio=1.30 / aq-mode=3 / aq-strength=1.25 / cutree / zone-count=0 / no-strict-cbr / qg-size=32 / no-rc-grain / qpmax=69 / qpmin=0 / no-const-vbv / sar=1 / overscan=0 / videoformat=5 / range=0 / colorprim=1 / transfer=1 / colormatrix=1 / chromaloc=0 / display-window=0 / cll=0,0 / min-luma=0 / max-luma=1023 / log2-max-poc-lsb=8 / vui-timing-info / vui-hrd-info / slices=1 / no-opt-qp-pps / no-opt-ref-list-length-pps / no-multi-pass-opt-rps / scenecut-bias=0.05 / no-opt-cu-delta-qp / no-aq-motion / no-hdr / no-hdr-opt / no-dhdr10-opt / no-idr-recovery-sei / analysis-reuse-level=5 / scale-factor=0 / refine-intra=0 / refine-inter=0 / refine-mv=1 / refine-ctu-distortion=0 / no-limit-sao / ctu-info=0 / no-lowpass-dct / refine-analysis-type=0 / copy-pic=1 / max-ausize-factor=1.0 / no-dynamic-refine / no-single-sei / no-hevc-aq / no-svt / no-field / qp-adaptation-range=1.00 Language : Japanese Default : Yes Forced : No Color range : Limited Color primaries : BT.709 Transfer characteristics : BT.709 Matrix coefficients : BT.709 Audio #1 ID : 2 Format : PCM Format settings : Little / Signed Codec ID : A_PCM/INT/LIT Duration : 25 min 11 s Bit rate mode : Constant Bit rate : 1 536 kb/s Channel(s) : 2 channels Sampling rate : 48.0 kHz Frame rate : 32.000 FPS (1500 SPF) Bit depth : 16 bits Stream size : 277 MiB (13%) Language : English Default : Yes Forced : No Audio #2 ID : 3 Format : PCM Format settings : Little / Signed Codec ID : A_PCM/INT/LIT Duration : 25 min 11 s Bit rate mode : Constant Bit rate : 1 536 kb/s Channel(s) : 2 channels Sampling rate : 48.0 kHz Frame rate : 32.000 FPS (1500 SPF) Bit depth : 16 bits Stream size : 277 MiB (13%) Language : Japanese Default : No Forced : No Text #1 ID : 4 Format : PGS Muxing mode : zlib Codec ID : S_HDMV/PGS Codec ID/Info : Picture based subtitle format used on BDs/HD-DVDs Duration : 23 min 21 s Bit rate : 9 057 b/s Count of elements : 50 Stream size : 1.51 MiB (0%) Title : Signs / Songs Language : English Default : Yes Forced : No Text #2 ID : 5 Format : PGS Muxing mode : zlib Codec ID : S_HDMV/PGS Codec ID/Info : Picture based subtitle format used on BDs/HD-DVDs Duration : 25 min 4 s Bit rate : 57.9 kb/s Count of elements : 582 Stream size : 10.4 MiB (1%) Title : Dialogue Language : English Default : No Forced : No Menu 00:00:00.000 : en:Chapter 01 00:01:48.025 : en:Chapter 02 00:03:18.115 : en:Chapter 03 00:11:21.055 : en:Chapter 04 00:23:30.075 : en:Chapter 05 00:25:00.082 : en:Chapter 06

File list

  • KonoSuba.S01.1080p.Blu-Ray.10-Bit.Dual-Audio.LPCM.x265-iAHD
    • KonoSuba.S01E01.1080p.Blu-Ray.10-Bit.Dual-Audio.LPCM.x265-iAHD.mkv (2.0 GiB)
    • KonoSuba.S01E02.1080p.Blu-Ray.10-Bit.Dual-Audio.LPCM.x265-iAHD.mkv (1.9 GiB)
    • KonoSuba.S01E03.1080p.Blu-Ray.10-Bit.Dual-Audio.LPCM.x265-iAHD.mkv (1.8 GiB)
    • KonoSuba.S01E04.1080p.Blu-Ray.10-Bit.Dual-Audio.LPCM.x265-iAHD.mkv (1.8 GiB)
    • KonoSuba.S01E05.1080p.Blu-Ray.10-Bit.Dual-Audio.LPCM.x265-iAHD.mkv (2.0 GiB)
    • KonoSuba.S01E06.1080p.Blu-Ray.10-Bit.Dual-Audio.LPCM.x265-iAHD.mkv (2.1 GiB)
    • KonoSuba.S01E07.1080p.Blu-Ray.10-Bit.Dual-Audio.LPCM.x265-iAHD.mkv (1.8 GiB)
    • KonoSuba.S01E08.1080p.Blu-Ray.10-Bit.Dual-Audio.LPCM.x265-iAHD.mkv (1.9 GiB)
    • KonoSuba.S01E09.1080p.Blu-Ray.10-Bit.Dual-Audio.LPCM.x265-iAHD.mkv (1.8 GiB)
    • KonoSuba.S01E10.1080p.Blu-Ray.10-Bit.Dual-Audio.LPCM.x265-iAHD.mkv (2.1 GiB)
    • KonoSuba.S01E11.1080p.Blu-Ray.10-Bit.Dual-Audio.LPCM.x265-iAHD.mkv (1.8 GiB)
would someone be so kind as to seed dragon ball movies battle of the gods, resurrection f?
THANK YOU SO MUCH...
Thanks @iAHQ 😍😍😍
thank you, any plans for hunter x huner?
Can someone please seed, Dragon.Ball.Super.Broly.2018.1080p.UK.BluRay