[Mysteria] Kaichou wa Maid-sama! +LaLa Special [BD 1080p] (HEVC x265 10-bit Opus)

Category:
Date:
2020-08-01 21:43 UTC
Submitter:
Seeders:
8
File size:
27.5 GiB
Completed:
112
Info hash:
d029691da28bfa9de8c01fb86f4a7539434befb7
![alt text](https://images-na.ssl-images-amazon.com/images/I/612JPsrTaCL._SX342_.jpg) **Synopsis:** Being the first female student council president isn't easy, especially when your school just transitioned from an all boys high school to a co-ed one. Aptly nicknamed "Demon President" by the boys for her strict disciplinary style, Misaki Ayuzawa is not afraid to use her mastery of Aikido techniques to cast judgment onto the hordes of misbehaving boys and defend the girls at Seika High School. Yet even the perfect Ayuzawa has an embarrassing secret—she works part-time as a maid at a maid café to help her struggling family pay the bills. She has managed to keep her job hidden from her fellow students and maintained her flawless image as a stellar student until one day, Takumi Usui, the most popular boy in school, walks into the maid café. He could destroy her reputation with her secret... or he could twist the student council president around his little finger and use her secret as an opportunity to get closer to her. Description: Title: Kaichou wa Maid-sama! (Maid-sama!) *Original Source: **iAHD (https://nyaa.iss.one/view/1267121)** *Video Format: x265 HEVC 10bit mkv *Audio Codec: Japanese 2.0 Opus VBR (256 kbps) *Duration: 24 minutes *Subtitle Source: **Coalgirls, FFF** *Resolution/Quality: 1920x1080 or 1080p HD *Genre: Comedy, Romance, School, Shoujo *Age Rating: PG-13 **~ Translator's Note: Don't know why, but for some godforsaken reason FFF's subtitles were completely out of sync for this show. I'm talking about 20-30 seconds off for every episode. Each episode was timed differently, including the OP/ED.** **What I did was use Coalgirls' subs for the main episode, and use FFF's subs for the OP/ED. This still involved a shitton of re-timing basically everything. I had to time each main episode, the OP/ED, some words line by line, and every episode preview. Goddamn. No one wants to re-time subtitles. No one. It's a [horrific thing to go through.](https://nyaa.iss.one/view/1266882) Due to this show being originally rendered in 720p, I ran into many issues with the subtitles to begin with, such as complete misaligmment with the kanji. I've had the LaLa Special on my hard drive for God knows how long, and have no idea where I got it from. The subtitles for that are hardsubbed and have honorifics.** **This is a hilarious romantic comedy for those who haven't watched it. If you finish the show and want to see the true ending, I'd recommend you read the manga. The ending is quite predictable, but it has its quirks. Please seed this for others. This show is mainly DEAD, and there are only [3 releases](https://nyaa.iss.one/?f=0&c=1_2&q=maid+sama&s=seeders&o=desc) put up that don't have those cursed PGS subtitles. I will stop seeding once I reach a ratio of 10.** *2020-08-02: Reached a ratio of 10. Finished seeding.* **Screens:** ![alt text](https://i.imgur.com/Jobxuu4.png) ![alt text](https://i.imgur.com/35nARuA.png) ![alt text](https://i.imgur.com/R9GVeSo.png) **Media Info:** ``` General Unique ID : 121790707909731849469551671853928719390 (0x5BA009816D46DD302D64A32313D4A41E) Complete name : C:\Users\Mysteria\Downloads\[Mysteria] Kaichou wa Maid-sama! [BD 1080p] (HEVC x265 10-bit Opus)\Season 1\[Mysteria] Kaichou wa Maid-sama! - 01.mkv Format : Matroska Format version : Version 4 File size : 981 MiB Duration : 24 min 12 s Overall bit rate : 5 668 kb/s Movie name : [Mysteria] Kaichou wa Maid-sama! - 01 Encoded date : UTC 2020-07-31 17:12:59 Writing application : mkvmerge v48.0.0 ('Fortress Around Your Heart') 64-bit Writing library : libebml v1.4.0 + libmatroska v1.6.0 Attachments : Acme 7 Wide Bold.ttf / ANDYB.TTF / HighlanderStd-Bold.otf / HighlanderStd-BoldItalic.otf / KGShadowOfTheDay.ttf / LeafletBold.otf / LEHN037.ttf / Maid ep title.ttf / Maid logo EB.ttf / Maid logo UB.ttf / Maid TS 2 Hsc.ttf / Maid TS 3.ttf / Maid TS EB.ttf / NOTE THIS.TTF / SubSymbol.ttf / THERIFV2.TTF / Yuru Yuri ep.ttf / Yuru Yuri sign.ttf Video ID : 1 Format : HEVC Format/Info : High Efficiency Video Coding Format profile : Main [email protected]@Main Codec ID : V_MPEGH/ISO/HEVC Duration : 24 min 12 s Bit rate : 5 394 kb/s Width : 1 920 pixels Height : 1 080 pixels Display aspect ratio : 16:9 Frame rate mode : Constant Frame rate : 23.976 (24000/1001) FPS Color space : YUV Chroma subsampling : 4:2:0 Bit depth : 10 bits Bits/(Pixel*Frame) : 0.108 Stream size : 934 MiB (95%) Title : Maid.Sama!.S01E01.1080p.Blu-Ray.10-Bit.Dual-Audio.DTS-HD.x265-iAHD Writing library : x265 3.2.1+1-b5c86a64bbbe:[Windows][GCC 9.2.0][64 bit] 10bit Encoding settings : cpuid=1111039 / frame-threads=4 / numa-pools=16 / wpp / no-pmode / no-pme / no-psnr / no-ssim / log-level=2 / input-csp=1 / input-res=1920x1080 / interlace=0 / total-frames=0 / level-idc=0 / high-tier=1 / uhd-bd=0 / ref=6 / no-allow-non-conformance / no-repeat-headers / annexb / no-aud / no-hrd / info / hash=0 / no-temporal-layers / open-gop / min-keyint=24 / keyint=240 / gop-lookahead=0 / bframes=16 / b-adapt=2 / b-pyramid / bframe-bias=0 / rc-lookahead=50 / lookahead-slices=4 / scenecut=40 / radl=0 / no-splice / no-intra-refresh / ctu=32 / min-cu-size=8 / no-rect / no-amp / max-tu-size=32 / tu-inter-depth=1 / tu-intra-depth=3 / limit-tu=0 / rdoq-level=2 / dynamic-rd=0.00 / no-ssim-rd / signhide / tskip / nr-intra=0 / nr-inter=0 / no-constrained-intra / no-strong-intra-smoothing / max-merge=3 / limit-refs=3 / limit-modes / me=3 / subme=3 / merange=57 / temporal-mvp / no-hme / weightp / no-weightb / no-analyze-src-pics / deblock=1:1 / no-sao / no-sao-non-deblock / rd=4 / selective-sao=0 / no-early-skip / rskip / no-fast-intra / tskip-fast / no-cu-lossless / no-b-intra / no-splitrd-skip / rdpenalty=0 / psy-rd=0.80 / psy-rdoq=2.00 / no-rd-refine / no-lossless / cbqpoffs=0 / crqpoffs=0 / rc=crf / crf=16.0 / qcomp=0.60 / qpstep=4 / stats-write=0 / stats-read=0 / ipratio=1.40 / pbratio=1.30 / aq-mode=3 / aq-strength=1.25 / cutree / zone-count=0 / no-strict-cbr / qg-size=32 / no-rc-grain / qpmax=69 / qpmin=0 / no-const-vbv / sar=1 / overscan=0 / videoformat=5 / range=0 / colorprim=1 / transfer=1 / colormatrix=1 / chromaloc=0 / display-window=0 / cll=0,0 / min-luma=0 / max-luma=1023 / log2-max-poc-lsb=8 / vui-timing-info / vui-hrd-info / slices=1 / no-opt-qp-pps / no-opt-ref-list-length-pps / no-multi-pass-opt-rps / scenecut-bias=0.05 / no-opt-cu-delta-qp / no-aq-motion / no-hdr / no-hdr-opt / no-dhdr10-opt / no-idr-recovery-sei / analysis-reuse-level=5 / scale-factor=0 / refine-intra=0 / refine-inter=0 / refine-mv=1 / refine-ctu-distortion=0 / no-limit-sao / ctu-info=0 / no-lowpass-dct / refine-analysis-type=0 / copy-pic=1 / max-ausize-factor=1.0 / no-dynamic-refine / no-single-sei / no-hevc-aq / no-svt / no-field / qp-adaptation-range=1.00 Language : Japanese Default : Yes Forced : No Color range : Limited Color primaries : BT.709 Transfer characteristics : BT.709 Matrix coefficients : BT.709 Audio ID : 2 Format : Opus Codec ID : A_OPUS Duration : 24 min 12 s Bit rate : 258 kb/s Channel(s) : 2 channels Channel layout : L R Sampling rate : 48.0 kHz Frame rate : 50.001 FPS (960 SPF) Compression mode : Lossy Stream size : 44.7 MiB (5%) Title : Japanese 2.0 Opus (256 kbps) Writing library : fre:ac v1.1.2a Language : Japanese Default : Yes Forced : No Text ID : 3 Format : ASS Codec ID : S_TEXT/ASS Codec ID/Info : Advanced Sub Station Alpha Duration : 24 min 9 s Bit rate : 2 126 b/s Count of elements : 2438 Compression mode : Lossless Stream size : 376 KiB (0%) Title : Full Subtitles [Coalgirls/FFF] Language : English Default : Yes Forced : No Menu 00:00:00.000 : en:Opening 00:01:31.008 : en:Part A 00:01:57.284 : en:Part B 00:02:02.289 : en:Part C 00:13:09.163 : en:Part D 00:22:11.205 : en:Ending 00:23:41.003 : en:Preview ```

File list

  • [Mysteria] Kaichou wa Maid-sama!+LaLa Special [BD 1080p] (HEVC x265 10-bit Opus)
    • Season 1
      • Creditless
        • Kaichou-wa Maid sama! -NCED1.mkv (40.8 MiB)
        • Kaichou-wa Maid sama! -NCED2.mkv (39.5 MiB)
        • Kaichou-wa Maid sama! -NCOP.mkv (41.7 MiB)
      • LaLa Special Goshujinsama to Asonjao♥ (Characters PV).mkv (105.5 MiB)
      • [Mysteria] Kaichou wa Maid-Sama! - 23.mkv (1.1 GiB)
      • [Mysteria] Kaichou wa Maid-sama! - 01.mkv (981.2 MiB)
      • [Mysteria] Kaichou wa Maid-sama! - 02.mkv (1.0 GiB)
      • [Mysteria] Kaichou wa Maid-sama! - 03.mkv (1023.4 MiB)
      • [Mysteria] Kaichou wa Maid-sama! - 04.mkv (1.1 GiB)
      • [Mysteria] Kaichou wa Maid-sama! - 05.mkv (1.0 GiB)
      • [Mysteria] Kaichou wa Maid-sama! - 06.mkv (1.1 GiB)
      • [Mysteria] Kaichou wa Maid-sama! - 07.mkv (988.5 MiB)
      • [Mysteria] Kaichou wa Maid-sama! - 08.mkv (1.0 GiB)
      • [Mysteria] Kaichou wa Maid-sama! - 09.mkv (1.1 GiB)
      • [Mysteria] Kaichou wa Maid-sama! - 10.mkv (978.1 MiB)
      • [Mysteria] Kaichou wa Maid-sama! - 11.mkv (957.1 MiB)
      • [Mysteria] Kaichou wa Maid-sama! - 12.mkv (1.1 GiB)
      • [Mysteria] Kaichou wa Maid-sama! - 13.mkv (1.0 GiB)
      • [Mysteria] Kaichou wa Maid-sama! - 14.mkv (941.2 MiB)
      • [Mysteria] Kaichou wa Maid-sama! - 15.mkv (1016.4 MiB)
      • [Mysteria] Kaichou wa Maid-sama! - 16.mkv (1.0 GiB)
      • [Mysteria] Kaichou wa Maid-sama! - 17.mkv (1.1 GiB)
      • [Mysteria] Kaichou wa Maid-sama! - 18.mkv (1023.7 MiB)
      • [Mysteria] Kaichou wa Maid-sama! - 19.mkv (1018.0 MiB)
      • [Mysteria] Kaichou wa Maid-sama! - 20.mkv (1.1 GiB)
      • [Mysteria] Kaichou wa Maid-sama! - 21.mkv (1.1 GiB)
      • [Mysteria] Kaichou wa Maid-sama! - 22.mkv (1.1 GiB)
      • [Mysteria] Kaichou wa Maid-sama! - 24.mkv (927.9 MiB)
      • [Mysteria] Kaichou wa Maid-sama! - 25.mkv (1.2 GiB)
      • [Mysteria] Kaichou wa Maid-sama! - 26.mkv (1.0 GiB)
      • [Mysteria] Kaichou wa Maid-sama! - 27.mkv (546.4 MiB)
File size too big not much hard disk space left 😅 So this is a little like Kaguya wants to be confessed to?

Ingenioussubs (uploader)

User
I haven’t watched that great show yet, so I can’t really compare Maid-sama to Kaguya-sama. The main female character is an exaggerated tsundere, and the guy is really arrogant and full of himself. They’re an extremely hilarious duo when it comes to comedy.
Thank you so much... I also planned on releasing the BD for this series but because of this >FFF’s subtitles were completely out of sync for this show. I’m talking about 20-30 seconds off for every episode. It made me fed up. And also the reason why the subs is out of sync for FFF are because they use HDTV source on the video with those "Goran no sponsor no teikyou de okurishimasu" if you know what I'm saying....

Ingenioussubs (uploader)

User
**@ghostosenpai** That makes much more sense now. Strange source they used. Don't know why they labeled it as TV-BD.
FFF only made BD for episode 1-6 only and the rest still HDTV.
thanks for doing this! i like iAHD's quality rips, but i prefer fansubs. this is the best of both worlds!!

Ingenioussubs (uploader)

User
**@ ShadowVlican** I don’t watch anything unless it has fansubs. If the anime is real old, and only has PGS I just stuck with it.
i'll keep this on my seedbox indefinitely, thanks again
Can you please do violet evergarden, ova , and movies

Ingenioussubs (uploader)

User
I haven't watched that show yet. When I get to it, I plan on making my own version of the show and movie. Don't know when that will be. Probably in the next coming months. Not anytime soon.
thank you i asked because there are no 1080p x265 torrents for this show

Ingenioussubs (uploader)

User
@DeathStroke Since I'm currently not watching anything and this seems like an amazing show, I'll do Violet Evergarden this week. It's ranked [#60.](https://myanimelist.net/anime/33352/Violet_Evergarden) It has to be worth watching.
Thanks for doing this!!!