[NSBC] Hanzawa Naoki 2020 Season 2 E10 [HDTV] [1080i]

Category:
Date:
2020-09-27 14:36 UTC
Submitter:
Seeders:
32
Information:
TlNCQy50bwo=
Leechers:
2
File size:
5.7 GiB
Completed:
4120
Info hash:
200f65a36e479fa38e4d2c93205293730f8f7a11
> ### In case there is no seeder, visit [here](https://nsbc.xyz/?p=53) ![](https://img.topddl.net/images/2020/07/19/poster.jpg "'") ![](https://img.topddl.net/images/2020/09/27/Hanzawa-Naoki-2020-S02E10-1080i-HDTV-AAC-MPEG2-NSBC.mkv.jpg "'") ``` General Unique ID : 125667707195539498831897643291254357683 (0x5E8AB85415CCE2E00417406C2A167EB3) Complete name : Hanzawa Naoki 2020 S02E10 1080i HDTV AAC MPEG2-NSBC.mkv Format : Matroska Format version : Version 4 File size : 5.71 GiB Duration : 59 min 34 s Overall bit rate mode : Variable Overall bit rate : 13.7 Mb/s Movie name : Hanzawa Naoki 2020 S02E10 1080i HDTV AAC MPEG2-NSBC Encoded date : UTC 2020-09-27 14:30:38 Writing application : mkvmerge v29.0.0 ('Like It Or Not') 64-bit Writing library : libebml v1.3.6 + libmatroska v1.4.9 Video ID : 1 Format : MPEG Video Format version : Version 2 Format profile : [email protected] Format settings : CustomMatrix / BVOP Format settings, BVOP : Yes Format settings, Matrix : Custom Format settings, GOP : M=3, N=15 Format settings, picture structure : Frame Codec ID : V_MPEG2 Codec ID/Info : MPEG 1 or 2 Video Duration : 59 min 34 s Bit rate mode : Variable Bit rate : 13.5 Mb/s Maximum bit rate : 20.0 Mb/s Width : 1 440 pixels Height : 1 080 pixels Display aspect ratio : 16:9 Frame rate mode : Constant Frame rate : 29.970 (30000/1001) FPS Color space : YUV Chroma subsampling : 4:2:0 Bit depth : 8 bits Scan type : Interlaced Scan order : Top Field First Compression mode : Lossy Bits/(Pixel*Frame) : 0.290 Time code of first frame : 00:00:00:00 Time code source : Group of pictures header GOP, Open/Closed : Open Stream size : 5.63 GiB (99%) Title : [NSBC] Default : Yes Forced : No Color primaries : BT.709 Transfer characteristics : BT.709 Matrix coefficients : BT.709 Audio ID : 2 Format : AAC LC Format/Info : Advanced Audio Codec Low Complexity Codec ID : A_AAC-2 Duration : 59 min 34 s Bit rate : 192 kb/s Channel(s) : 2 channels Channel layout : L R Sampling rate : 48.0 kHz Frame rate : 46.875 FPS (1024 SPF) Compression mode : Lossy Delay relative to video : -13 ms Stream size : 80.4 MiB (1%) Title : [NSBC] Language : Japanese Default : Yes Forced : No ```

File list

  • Hanzawa Naoki 2020 S02E10 1080i HDTV AAC MPEG2-NSBC.mkv (5.7 GiB)
why cant i download your torrents nosoba? stuck in “downloading metadata”. i’m using nordvpn.