Fate Stay Night Movie - Heaven's Feel - I. Presage Flower (2017) v2 [ZECHS] [DUBBED] [HEVC] [BD 1080p] [DTS]

Category:
Date:
2020-10-18 08:00 UTC
Submitter:
Seeders:
5
Information:
No information.
Leechers:
4
File size:
7.1 GiB
Completed:
148
Info hash:
cf4ee9f09caec4f623ae347cfae6a690d413eb62
VCB's video muxed with English audio from USBD along with Signs Track. [ZECHS ARCHIVES](https://groups.google.com/forum/#!forum/zechs-archives-01) for all other releases. General Unique ID : 172083344644691863047285335363760374824 (0x81760BF07A59FD63856CE46AD2874428) Complete name : [ZECHS] Fate Stay Night Movie - Heaven's Feel - I. Presage Flower (2017) v2 [DUBBED] [HEVC] [BD 1080p] [DTS].mkv Format : Matroska Format version : Version 4 / Version 2 File size : 7.12 GiB Duration : 2 h 0 min Overall bit rate : 8 450 kb/s Encoded date : UTC 2020-10-18 06:42:01 Writing application : mkvmerge v51.0.0 ('I Wish') 64-bit Writing library : libebml v1.4.0 + libmatroska v1.6.2 Video ID : 1 Format : HEVC Format/Info : High Efficiency Video Coding Format profile : Main [email protected]@High Codec ID : V_MPEGH/ISO/HEVC Duration : 2 h 0 min Bit rate : 6 570 kb/s Width : 1 920 pixels Height : 1 080 pixels Display aspect ratio : 16:9 Frame rate mode : Constant Frame rate : 23.976 (24000/1001) FPS Color space : YUV Chroma subsampling : 4:2:0 Bit depth : 10 bits Bits/(Pixel*Frame) : 0.132 Stream size : 5.53 GiB (78%) Writing library : x265 2.5+5-0b3ba15b33ea:[Windows][MSVC 1911][64 bit] 10bit Encoding settings : cpuid=1173503 / frame-threads=4 / numa-pools=-,-,-,+ / wpp / no-pmode / no-pme / no-psnr / no-ssim / log-level=2 / input-csp=1 / input-res=1920x1080 / interlace=0 / total-frames=0 / level-idc=0 / high-tier=1 / uhd-bd=0 / ref=4 / no-allow-non-conformance / no-repeat-headers / annexb / no-aud / no-hrd / info / hash=0 / no-temporal-layers / no-open-gop / min-keyint=1 / keyint=360 / bframes=6 / b-adapt=2 / b-pyramid / bframe-bias=0 / rc-lookahead=80 / lookahead-slices=4 / scenecut=40 / no-intra-refresh / ctu=32 / min-cu-size=8 / rect / no-amp / max-tu-size=32 / tu-inter-depth=2 / tu-intra-depth=2 / limit-tu=4 / rdoq-level=2 / dynamic-rd=0.00 / no-ssim-rd / signhide / no-tskip / nr-intra=0 / nr-inter=0 / no-constrained-intra / no-strong-intra-smoothing / max-merge=3 / limit-refs=2 / limit-modes / me=3 / subme=4 / merange=38 / temporal-mvp / weightp / weightb / no-analyze-src-pics / deblock=-1:-1 / no-sao / no-sao-non-deblock / rd=5 / no-early-skip / rskip / no-fast-intra / no-tskip-fast / no-cu-lossless / b-intra / rdpenalty=0 / psy-rd=1.80 / psy-rdoq=1.00 / no-rd-refine / analysis-reuse-mode=0 / no-lossless / cbqpoffs=-3 / crqpoffs=-3 / rc=crf / crf=15.0 / qcomp=0.65 / qpstep=4 / stats-write=0 / stats-read=0 / vbv-maxrate=32000 / vbv-bufsize=40000 / vbv-init=0.9 / crf-max=0.0 / crf-min=0.0 / ipratio=1.40 / pbratio=1.20 / aq-mode=1 / aq-strength=0.80 / cutree / zone-count=0 / no-strict-cbr / qg-size=8 / no-rc-grain / qpmax=69 / qpmin=0 / no-const-vbv / sar=0 / overscan=0 / videoformat=5 / range=0 / colorprim=2 / transfer=2 / colormatrix=1 / chromaloc=0 / display-window=0 / max-cll=0,0 / min-luma=0 / max-luma=1023 / log2-max-poc-lsb=8 / vui-timing-info / vui-hrd-info / slices=1 / opt-qp-pps / opt-ref-list-length-pps / no-multi-pass-opt-rps / scenecut-bias=0.05 / no-opt-cu-delta-qp / no-aq-motion / no-hdr / no-hdr-opt / no-dhdr10-opt / analysis-reuse-level=5 / scale-factor=0 / refine-intra=0 / refine-inter=0 / refine-mv=0 / no-limit-sao / ctu-info=0 Default : Yes Forced : No Color range : Limited Matrix coefficients : BT.709 Audio ID : 2 ID in the original source medium : 4352 (0x1100) Format : DTS Format/Info : Digital Theater Systems Format profile : MA / Core Codec ID : A_DTS Duration : 2 h 0 min Bit rate mode : Variable / Constant Bit rate : 1 876 kb/s / 960 kb/s Channel(s) : 6 channels Channel positions : Front: L C R, Side: L R, LFE Sampling rate : 48.0 kHz Frame rate : 93.750 FPS (512 SPF) Bit depth : 16 bits Compression mode : Lossless / Lossy Stream size : 1.58 GiB (22%) Language : English Default : Yes Forced : No Original source medium : Blu-ray Text ID : 3 ID in the original source medium : 4608 (0x1200) Format : PGS Muxing mode : zlib Codec ID : S_HDMV/PGS Codec ID/Info : Picture based subtitle format used on BDs/HD-DVDs Duration : 2 h 0 min Bit rate : 2 728 b/s Count of elements : 178 Stream size : 2.34 MiB (0%) Title : Signs & Songs Language : English Default : Yes Forced : No Original source medium : Blu-ray Menu 00:00:00.000 : en:Chapter 01 00:04:19.884 : en:Chapter 02 00:09:07.838 : en:Chapter 03 00:12:32.126 : en:Chapter 04 00:19:47.394 : en:Chapter 05 00:26:44.102 : en:Chapter 06 00:29:58.004 : en:Chapter 07 00:34:50.588 : en:Chapter 08 00:40:10.991 : en:Chapter 09 00:47:07.574 : en:Chapter 10 00:52:19.177 : en:Chapter 11 00:59:06.543 : en:Chapter 12 01:07:36.886 : en:Chapter 13 01:15:41.119 : en:Chapter 14 01:20:32.202 : en:Chapter 15 01:24:49.417 : en:Chapter 16 01:30:56.742 : en:Chapter 17 01:38:43.125 : en:Chapter 18 01:44:11.370 : en:Chapter 19 01:51:28.264 : en:Chapter 20 01:53:39.312 : en:Chapter 21 01:59:21.154 : en:Chapter 22 02:00:34.393 : en:Chapter 23

File list