Fate Stay Night Movie - Heaven's Feel - II. Lost Butterfly (2019) v2 [ZECHS] [DUBBED] [HEVC] [BD 1080p] [DTS]

Category:
Date:
2020-10-18 08:03 UTC
Submitter:
Seeders:
4
Information:
No information.
Leechers:
5
File size:
10.4 GiB
Completed:
170
Info hash:
78ca4d3ca3ffd5606b112560e9903b8e15e1bd21
Beatrice's video muxed with English audio from USBD along with Signs Track. [ZECHS ARCHIVES](https://groups.google.com/forum/#!forum/zechs-archives-01) for all other releases. General Unique ID : 284887740040262396445633142440507285706 (0xD6536207E997F54D0270274E50FD20CA) Complete name : [ZECHS] Fate Stay Night Movie - Heaven's Feel - II. Lost Butterfly (2019) v2 [DUBBED] [HEVC] [BD 1080p] [DTS].mkv Format : Matroska Format version : Version 4 / Version 2 File size : 10.4 GiB Duration : 1 h 57 min Overall bit rate : 12.7 Mb/s Encoded date : UTC 2020-10-18 06:25:57 Writing application : mkvmerge v51.0.0 ('I Wish') 64-bit Writing library : libebml v1.4.0 + libmatroska v1.6.2 Video ID : 1 Format : HEVC Format/Info : High Efficiency Video Coding Format profile : Main [email protected]@Main Codec ID : V_MPEGH/ISO/HEVC Duration : 1 h 57 min Bit rate : 10.7 Mb/s Width : 1 920 pixels Height : 1 080 pixels Display aspect ratio : 16:9 Frame rate mode : Constant Frame rate : 23.976 (24000/1001) FPS Color space : YUV Chroma subsampling : 4:2:0 Bit depth : 10 bits Bits/(Pixel*Frame) : 0.216 Stream size : 8.78 GiB (85%) Writing library : x265 3.1+8-21db162c8622:[DJATOM's Mod][Windows][GCC 9.1.1][64 bit] 10bit Encoding settings : cpuid=1049583 / frame-threads=8 / numa-pools=32,32 / wpp / pmode / pme / no-psnr / no-ssim / log-level=2 / csv / csv-log-level=1 / input-csp=1 / input-res=1920x1080 / interlace=0 / total-frames=168504 / level-idc=0 / high-tier=1 / uhd-bd=0 / ref=4 / no-allow-non-conformance / no-repeat-headers / annexb / no-aud / no-hrd / info / hash=0 / no-temporal-layers / open-gop / min-keyint=23 / keyint=240 / gop-lookahead=0 / bframes=9 / b-adapt=2 / b-pyramid / bframe-bias=0 / rc-lookahead=20 / lookahead-slices=6 / scenecut=40 / radl=0 / no-splice / no-intra-refresh / ctu=64 / min-cu-size=8 / no-rect / no-amp / max-tu-size=32 / tu-inter-depth=2 / tu-intra-depth=2 / limit-tu=0 / rdoq-level=2 / dynamic-rd=0.00 / no-ssim-rd / signhide / no-tskip / nr-intra=0 / nr-inter=0 / no-constrained-intra / strong-intra-smoothing / max-merge=3 / limit-refs=1 / limit-modes / me=2 / subme=5 / merange=48 / temporal-mvp / hme / Level / weightp / weightb / no-analyze-src-pics / deblock=1:-1 / no-sao / no-sao-non-deblock / rd=4 / no-early-skip / no-rskip / no-fast-intra / no-tskip-fast / no-cu-lossless / b-intra / no-splitrd-skip / rdpenalty=0 / psy-rd=2.00 / psy-rdoq=4.00 / no-rd-refine / no-lossless / cbqpoffs=-2 / crqpoffs=-2 / rc=crf / crf=14.8 / qcomp=0.72 / qpstep=4 / stats-write=0 / stats-read=0 / ipratio=1.40 / pbratio=1.30 / aq-mode=4 / aq-strength=0.86 / no-cutree / zone-count=0 / no-strict-cbr / qg-size=32 / no-rc-grain / qpmax=69 / qpmin=0 / no-const-vbv / sar=1 / overscan=0 / videoformat=5 / range=0 / colorprim=1 / transfer=1 / colormatrix=1 / chromaloc=0 / display-window=0cll=0,0 / min-luma=0 / max-luma=1023 / log2-max-poc-lsb=8 / vui-timing-info / vui-hrd-info / slices=1 / no-opt-qp-pps / no-opt-ref-list-length-pps / no-multi-pass-opt-rps / scenecut-bias=0.05 / no-opt-cu-delta-qp / no-aq-motion / no-hdr / no-hdr-opt / no-dhdr10-opt / no-idr-recovery-sei / analysis-reuse-level=5 / scale-factor=0 / refine-intra=0 / refine-inter=0 / refine-mv=0 / refine-ctu-distortion=0 / no-limit-sao / ctu-info=0 / no-lowpass-dct / refine-analysis-type=0 / copy-pic=1 / max-ausize-factor=1.0 / no-dynamic-refine / no-single-sei / hevc-aq / no-svt / no-field / qp-adaptation-range=2.00 Language : Japanese Default : Yes Forced : No Color range : Limited Color primaries : BT.709 Transfer characteristics : BT.709 Matrix coefficients : BT.709 Audio ID : 2 Format : DTS Format/Info : Digital Theater Systems Format profile : MA / Core Codec ID : A_DTS Duration : 1 h 57 min Bit rate mode : Variable / Constant Bit rate : 1 964 kb/s / 960 kb/s Channel(s) : 6 channels Channel positions : Front: L C R, Side: L R, LFE Sampling rate : 48.0 kHz Frame rate : 93.750 FPS (512 SPF) Bit depth : 16 bits Compression mode : Lossless / Lossy Stream size : 1.61 GiB (15%) Language : English Default : Yes Forced : No Text ID : 3 Format : PGS Muxing mode : zlib Codec ID : S_HDMV/PGS Codec ID/Info : Picture based subtitle format used on BDs/HD-DVDs Duration : 26 min 45 s Bit rate : 2 128 b/s Count of elements : 40 Stream size : 417 KiB (0%) Title : Signs & Songs Language : English Default : Yes Forced : No Menu 00:00:00.000 : ja:Chapter 01 00:04:19.550 : ja:Chapter 02 00:06:01.235 : ja:Chapter 03 00:11:14.215 : ja:Chapter 04 00:15:10.367 : ja:Chapter 05 00:20:21.345 : ja:Chapter 06 00:23:48.427 : ja:Chapter 07 00:28:46.182 : ja:Chapter 08 00:41:34.200 : ja:Chapter 09 00:46:34.208 : ja:Chapter 10 00:50:03.417 : ja:Chapter 11 00:54:46.283 : ja:Chapter 12 00:59:51.004 : ja:Chapter 13 01:05:44.982 : ja:Chapter 14 01:10:01.488 : ja:Chapter 15 01:16:13.360 : ja:Chapter 16 01:22:21.478 : ja:Chapter 17 01:29:35.703 : ja:Chapter 18 01:34:24.158 : ja:Chapter 19 01:39:34.301 : ja:Chapter 20 01:42:03.951 : ja:Chapter 21 01:46:08.320 : ja:Chapter 22 01:51:18.672 : ja:Chapter 23 01:55:49.943 : ja:Chapter 24 01:57:07.020 : ja:Chapter 25

File list

Thanks for both movies. Should probably changed the "Dubbed" title to "Dual Audio" for both releases. I thought this was English voices only.

zechs (uploader)

User
@@SomaHeir They are English Audio only. No more Dual Audio from now on.
u cloud keep full sub track for optional, some people like full sub with English audio

zechs (uploader)

User
@@Jyoti Ya, I don't think many people watch Dub with subtitles.
I sometimes do, because english is not my first language Anyway, thanks for update ^^