Steins;Gate - The Movie − Load Region of Déjà Vu (2013) [ZECHS] [DUBBED] [HEVC] [BD 1080p] [TrueHD]

Category:
Date:
2020-10-18 09:45 UTC
Submitter:
Seeders:
9
Information:
No information.
Leechers:
2
File size:
8.3 GiB
Completed:
130
Info hash:
868f47b7d278b3051c735891f2b3fed9bdab2530
Yūrei's video muxed with English audio from USBD along with Signs Track. [ZECHS ARCHIVES](https://groups.google.com/forum/#!forum/zechs-archives-01) for all other releases. General Unique ID : 34647169673801708891561358930468281860 (0x1A10CD5A1D93FB4AFFC46D294E9A1E04) Complete name : [ZECHS] Steins;Gate - The Movie − Load Region of Déjà Vu (2013) [DUBBED] [HEVC] [BD 1080p] [TrueHD].mkv Format : Matroska Format version : Version 4 / Version 2 File size : 8.26 GiB Duration : 1 h 30 min Overall bit rate mode : Variable Overall bit rate : 13.1 Mb/s Encoded date : UTC 2020-10-18 07:00:19 Writing application : mkvmerge v51.0.0 ('I Wish') 64-bit Writing library : libebml v1.4.0 + libmatroska v1.6.2 Video ID : 1 Format : HEVC Format/Info : High Efficiency Video Coding Format profile : Main [email protected]@Main Codec ID : V_MPEGH/ISO/HEVC Duration : 1 h 30 min Bit rate : 11.9 Mb/s Width : 1 920 pixels Height : 1 080 pixels Display aspect ratio : 16:9 Frame rate mode : Constant Frame rate : 23.976 (24000/1001) FPS Color space : YUV Chroma subsampling : 4:2:0 Bit depth : 10 bits Bits/(Pixel*Frame) : 0.239 Stream size : 7.49 GiB (91%) Writing library : x265 3.4+15-g45f1d01f8:[Windows][MSVC 1927][64 bit] 10bit Encoding settings : cpuid=1111039 / frame-threads=1 / numa-pools=24 / wpp / no-pmode / no-pme / no-psnr / no-ssim / log-level=2 / input-csp=1 / input-res=1920x1080 / interlace=0 / total-frames=129528 / level-idc=0 / high-tier=1 / uhd-bd=0 / ref=6 / no-allow-non-conformance / no-repeat-headers / annexb / no-aud / no-hrd / info / hash=0 / no-temporal-layers / open-gop / min-keyint=23 / keyint=250 / gop-lookahead=0 / bframes=8 / b-adapt=2 / b-pyramid / bframe-bias=0 / rc-lookahead=25 / lookahead-slices=4 / scenecut=40 / hist-scenecut=0 / radl=0 / no-splice / no-intra-refresh / ctu=64 / min-cu-size=8 / rect / no-amp / max-tu-size=32 / tu-inter-depth=1 / tu-intra-depth=1 / limit-tu=0 / rdoq-level=2 / dynamic-rd=0.00 / no-ssim-rd / signhide / no-tskip / nr-intra=0 / nr-inter=0 / no-constrained-intra / strong-intra-smoothing / max-merge=3 / limit-refs=3 / limit-modes / me=3 / subme=3 / merange=57 / temporal-mvp / no-frame-dup / no-hme / weightp / no-weightb / no-analyze-src-pics / deblock=0:0 / no-sao / no-sao-non-deblock / rd=4 / selective-sao=0 / no-early-skip / rskip / no-fast-intra / no-tskip-fast / no-cu-lossless / no-b-intra / no-splitrd-skip / rdpenalty=0 / psy-rd=1.50 / psy-rdoq=4.00 / no-rd-refine / no-lossless / cbqpoffs=0 / crqpoffs=0 / rc=crf / crf=16.0 / qcomp=0.60 / qpstep=4 / stats-write=0 / stats-read=0 / ipratio=1.40 / pbratio=1.30 / aq-mode=3 / aq-strength=1.00 / cutree / zone-count=0 / no-strict-cbr / qg-size=32 / no-rc-grain / qpmax=69 / qpmin=0 / no-const-vbv / sar=0 / overscan=0 / videoformat=5 / range=0 / colorprim=2 / transfer=2 / colormatrix=2 / chromaloc=0 / display-window=0 / cll=0,0 / min-luma=0 / max-luma=1023 / log2-max-poc-lsb=8 / vui-timing-info / vui-hrd-info / slices=1 / no-opt-qp-pps / no-opt-ref-list-length-pps / no-multi-pass-opt-rps / scenecut-bias=0.05 / hist-threshold=0.03 / no-opt-cu-delta-qp / no-aq-motion / no-hdr10 / no-hdr10-opt / no-dhdr10-opt / no-idr-recovery-sei / analysis-reuse-level=0 / analysis-save-reuse-level=0 / analysis-load-reuse-level=0 / scale-factor=0 / refine-intra=0 / refine-inter=0 / refine-mv=1 / refine-ctu-distortion=0 / no-limit-sao / ctu-info=0 / no-lowpass-dct / refine-analysis-type=0 / copy-pic=1 / max-ausize-factor=1.0 / no-dynamic-refine / no-single-sei / no-hevc-aq / no-svt / no-field / qp-adaptation-range=1.00 / no-scenecut-aware-qpconformance-window-offsets / right=0 / bottom=0 / decoder-max-rate=0 Default : Yes Forced : No Audio ID : 2 Format : TrueHD Codec ID : A_TRUEHD Duration : 1 h 30 min Bit rate mode : Variable Bit rate : 1 165 kb/s Maximum bit rate : 2 748 kb/s Channel(s) : 6 channels Channel positions : Front: L C R, Side: L R, LFE Sampling rate : 48.0 kHz Frame rate : 1 200.000 FPS (40 SPF) Compression mode : Lossless Stream size : 750 MiB (9%) Language : English Default : Yes Forced : No Text ID : 3 Format : PGS Muxing mode : zlib Codec ID : S_HDMV/PGS Codec ID/Info : Picture based subtitle format used on BDs/HD-DVDs Duration : 1 h 27 min Bit rate : 4 214 b/s Count of elements : 115 Stream size : 2.65 MiB (0%) Title : Signs & Songs Language : English Default : Yes Forced : No Menu 00:00:00.000 : en:Chapter 01 00:09:43.416 : en:Chapter 02 00:14:10.349 : en:Chapter 03 00:17:26.712 : en:Chapter 04 00:27:30.858 : en:Chapter 05 00:33:28.506 : en:Chapter 06 00:42:00.518 : en:Chapter 07 00:46:29.996 : en:Chapter 08 00:51:35.342 : en:Chapter 09 01:04:31.326 : en:Chapter 10 01:13:59.560 : en:Chapter 11 01:24:27.354 : en:Chapter 12 01:26:36.691 : en:Chapter 13

File list