My Hero Academia - Two Heroes (2018) [ZECHS] [DUBBED] [HEVC] [BD 1080p] [TrueHD]

Category:
Date:
2020-10-18 09:48 UTC
Submitter:
Seeders:
28
Information:
No information.
Leechers:
3
File size:
7.6 GiB
Completed:
139
Info hash:
1dceba28624f92e58e1f2a3e099bf2c46977b0a4
YĆ«rei's video muxed with English audio from USBD along with Signs Track. [ZECHS ARCHIVES](https://groups.google.com/forum/#!forum/zechs-archives-01) for all other releases. General Unique ID : 174954644655285448544367243691058081405 (0x839F09F5AFAC4E841B59300919052E7D) Complete name : [ZECHS] My Hero Academia - Two Heroes (2018) [DUBBED] [HEVC] [BD 1080p] [TrueHD].mkv Format : Matroska Format version : Version 4 / Version 2 File size : 7.62 GiB Duration : 1 h 35 min Overall bit rate mode : Variable Overall bit rate : 11.4 Mb/s Encoded date : UTC 2020-10-18 07:18:06 Writing application : mkvmerge v51.0.0 ('I Wish') 64-bit Writing library : libebml v1.4.0 + libmatroska v1.6.2 Video ID : 1 Format : HEVC Format/Info : High Efficiency Video Coding Format profile : Main [email protected]@Main Codec ID : V_MPEGH/ISO/HEVC Duration : 1 h 35 min Bit rate : 8 867 kb/s Width : 1 920 pixels Height : 1 080 pixels Display aspect ratio : 16:9 Frame rate mode : Constant Frame rate : 23.976 (24000/1001) FPS Color space : YUV Chroma subsampling : 4:2:0 Bit depth : 10 bits Bits/(Pixel*Frame) : 0.178 Stream size : 5.94 GiB (78%) Writing library : x265 3.4+15-g45f1d01f8:[Windows][MSVC 1927][64 bit] 10bit Encoding settings : cpuid=1111039 / frame-threads=1 / numa-pools=24 / wpp / no-pmode / no-pme / no-psnr / no-ssim / log-level=2 / input-csp=1 / input-res=1920x1080 / interlace=0 / total-frames=137904 / level-idc=0 / high-tier=1 / uhd-bd=0 / ref=6 / no-allow-non-conformance / no-repeat-headers / annexb / no-aud / no-hrd / info / hash=0 / no-temporal-layers / open-gop / min-keyint=23 / keyint=250 / gop-lookahead=0 / bframes=8 / b-adapt=2 / b-pyramid / bframe-bias=0 / rc-lookahead=25 / lookahead-slices=4 / scenecut=40 / hist-scenecut=0 / radl=0 / no-splice / no-intra-refresh / ctu=64 / min-cu-size=8 / rect / no-amp / max-tu-size=32 / tu-inter-depth=1 / tu-intra-depth=1 / limit-tu=0 / rdoq-level=2 / dynamic-rd=0.00 / no-ssim-rd / signhide / no-tskip / nr-intra=0 / nr-inter=0 / no-constrained-intra / strong-intra-smoothing / max-merge=3 / limit-refs=3 / limit-modes / me=3 / subme=3 / merange=57 / temporal-mvp / no-frame-dup / no-hme / weightp / no-weightb / no-analyze-src-pics / deblock=0:0 / no-sao / no-sao-non-deblock / rd=4 / selective-sao=0 / no-early-skip / rskip / no-fast-intra / no-tskip-fast / no-cu-lossless / no-b-intra / no-splitrd-skip / rdpenalty=0 / psy-rd=1.50 / psy-rdoq=4.00 / no-rd-refine / no-lossless / cbqpoffs=0 / crqpoffs=0 / rc=crf / crf=16.0 / qcomp=0.60 / qpstep=4 / stats-write=0 / stats-read=0 / ipratio=1.40 / pbratio=1.30 / aq-mode=3 / aq-strength=1.00 / cutree / zone-count=0 / no-strict-cbr / qg-size=32 / no-rc-grain / qpmax=69 / qpmin=0 / no-const-vbv / sar=0 / overscan=0 / videoformat=5 / range=0 / colorprim=1 / transfer=1 / colormatrix=1 / chromaloc=0 / display-window=0 / cll=0,0 / min-luma=0 / max-luma=1023 / log2-max-poc-lsb=8 / vui-timing-info / vui-hrd-info / slices=1 / no-opt-qp-pps / no-opt-ref-list-length-pps / no-multi-pass-opt-rps / scenecut-bias=0.05 / hist-threshold=0.03 / no-opt-cu-delta-qp / no-aq-motion / no-hdr10 / no-hdr10-opt / no-dhdr10-opt / no-idr-recovery-sei / analysis-reuse-level=0 / analysis-save-reuse-level=0 / analysis-load-reuse-level=0 / scale-factor=0 / refine-intra=0 / refine-inter=0 / refine-mv=1 / refine-ctu-distortion=0 / no-limit-sao / ctu-info=0 / no-lowpass-dct / refine-analysis-type=0 / copy-pic=1 / max-ausize-factor=1.0 / no-dynamic-refine / no-single-sei / no-hevc-aq / no-svt / no-field / qp-adaptation-range=1.00 / no-scenecut-aware-qpconformance-window-offsets / right=0 / bottom=0 / decoder-max-rate=0 Default : Yes Forced : No Color range : Limited Color primaries : BT.709 Transfer characteristics : BT.709 Matrix coefficients : BT.709 Audio ID : 2 Format : TrueHD Codec ID : A_TRUEHD Duration : 1 h 35 min Bit rate mode : Variable Bit rate : 2 450 kb/s Maximum bit rate : 3 840 kb/s Channel(s) : 6 channels Channel positions : Front: L C R, Side: L R, LFE Sampling rate : 48.0 kHz Frame rate : 1 200.000 FPS (40 SPF) Compression mode : Lossless Stream size : 1.64 GiB (22%) Language : English Default : Yes Forced : No Text ID : 3 Format : PGS Muxing mode : zlib Codec ID : S_HDMV/PGS Codec ID/Info : Picture based subtitle format used on BDs/HD-DVDs Duration : 1 h 5 min Bit rate : 564 b/s Count of elements : 34 Stream size : 272 KiB (0%) Title : Signs & Songs Language : English Default : Yes Forced : No Menu 00:00:00.000 : en:Chapter 01 00:06:31.808 : en:Chapter 02 00:09:08.089 : en:Chapter 03 00:14:17.982 : en:Chapter 04 00:21:01.677 : en:Chapter 05 00:26:59.326 : en:Chapter 06 00:32:31.866 : en:Chapter 07 00:41:14.472 : en:Chapter 08 00:47:47.531 : en:Chapter 09 00:54:46.658 : en:Chapter 10 01:00:13.401 : en:Chapter 11 01:06:21.852 : en:Chapter 12 01:15:12.299 : en:Chapter 13 01:24:02.412 : en:Chapter 14 01:30:54.449 : en:Chapter 15

File list

> not dual-audio :(