Hige wo Soru. Soshite Joshikousei wo Hirou. Ep-01 1080p x265 Eng Sub :: Nyaa ISS

Hige wo Soru. Soshite Joshikousei wo Hirou. Ep-01 1080p x265 Eng Sub

Category:
Date:
2021-04-07 22:39 UTC
Submitter:
Anonymous
Seeders:
7
Information:
No information.
Leechers:
0
File size:
145.0 MiB
Completed:
84
Info hash:
21ec8c336341876afd946b51d276228d26801049
### Just encode with x265 and some filtering ### Did same ts work as well ## SS ![alt text](https://i.imgur.com/J8q9QkC.jpg "SS1") ![alt text](https://i.imgur.com/5vYXLId.jpg "SS2") ![alt text](https://i.imgur.com/m5opeGY.jpg "SS3") ## Media info General Unique ID : 317217794879197971627166638186402156654 (0xEEA5ECCD213FA9ECCDE5AAE49250106E) Complete name : D:\project\Hige wo Soru. Soshite Joshikousei wo Hirou. 1080p x265 Eng Sub\Ep-01 The Teenage Girl Beneath the Lamplight.mkv Format : Matroska Format version : Version 4 File size : 145 MiB Duration : 23 min 40 s Overall bit rate : 856 kb/s Movie name : Hige wo Soru. Soshite Joshikousei wo Hirou. Ep-01 1080p x265 Eng Sub Encoded date : UTC 2021-04-07 22:33:46 Writing application : mkvmerge v47.0.0 ('Black Flag') 64-bit Writing library : libebml v1.3.10 + libmatroska v1.5.2 Attachments : BokutohNStd-Regular.otf / FOTPopJoyStdStripped-B.otf / Roboto-Medium_0.ttf / Roboto-MediumItalic.ttf / A-OTF Neotoday Std R-KL.otf / A-OTF-BokutohNStd-Medium.otf / BELL.TTF / BELLB.TTF / Roboto-Medium.ttf / Roboto-MediumItalic.ttf / arial.ttf / arialbd.ttf / comic.ttf / comicbd.ttf / times.ttf / timesbd.ttf / trebuc.ttf / trebucbd.ttf / verdana.ttf / verdanab.ttf Video ID : 1 Format : HEVC Format/Info : High Efficiency Video Coding Format profile : Main [email protected]@Main Codec ID : V_MPEGH/ISO/HEVC Duration : 23 min 40 s Bit rate : 686 kb/s Width : 1 920 pixels Height : 1 080 pixels Display aspect ratio : 16:9 Frame rate mode : Constant Frame rate : 23.976 (24000/1001) FPS Color space : YUV Chroma subsampling : 4:2:0 Bit depth : 10 bits Bits/(Pixel*Frame) : 0.014 Stream size : 116 MiB (80%) Writing library : x265 3.4+2-73ca1d7be377:[Windows][GCC 6.3.0][64 bit] 10bit Encoding settings : cpuid=1111039 / frame-threads=3 / numa-pools=8 / wpp / no-pmode / no-pme / no-psnr / no-ssim / log-level=2 / input-csp=1 / input-res=1920x1080 / interlace=0 / total-frames=0 / level-idc=0 / high-tier=1 / uhd-bd=0 / ref=6 / no-allow-non-conformance / no-repeat-headers / annexb / no-aud / no-hrd / info / hash=0 / no-temporal-layers / open-gop / min-keyint=23 / keyint=250 / gop-lookahead=0 / bframes=8 / b-adapt=2 / b-pyramid / bframe-bias=0 / rc-lookahead=25 / lookahead-slices=4 / scenecut=40 / hist-scenecut=0 / radl=0 / no-splice / no-intra-refresh / ctu=64 / min-cu-size=8 / rect / amp / max-tu-size=32 / tu-inter-depth=1 / tu-intra-depth=1 / limit-tu=0 / rdoq-level=2 / dynamic-rd=0.00 / no-ssim-rd / signhide / no-tskip / nr-intra=0 / nr-inter=0 / no-constrained-intra / strong-intra-smoothing / max-merge=3 / limit-refs=3 / limit-modes / me=3 / subme=5 / merange=57 / temporal-mvp / no-frame-dup / no-hme / weightp / no-weightb / no-analyze-src-pics / deblock=0:0 / sao / no-sao-non-deblock / rd=4 / selective-sao=4 / no-early-skip / rskip / no-fast-intra / no-tskip-fast / no-cu-lossless / no-b-intra / no-splitrd-skip / rdpenalty=0 / psy-rd=1.22 / psy-rdoq=1.00 / no-rd-refine / no-lossless / cbqpoffs=0 / crqpoffs=0 / rc=crf / crf=19.0 / qcomp=0.60 / qpstep=4 / stats-write=0 / stats-read=0 / ipratio=1.40 / pbratio=1.30 / aq-mode=3 / aq-strength=0.70 / cutree / zone-count=0 / no-strict-cbr / qg-size=32 / no-rc-grain / qpmax=69 / qpmin=0 / no-const-vbv / sar=0 / overscan=0 / videoformat=5 / range=0 / colorprim=2 / transfer=2 / colormatrix=2 / chromaloc=0 / display-window=0 / cll=0,0 / min-luma=0 / max-luma=1023 / log2-max-poc-lsb=8 / vui-timing-info / vui-hrd-info / slices=1 / no-opt-qp-pps / no-opt-ref-list-length-pps / no-multi-pass-opt-rps / scenecut-bias=0.05 / hist-threshold=0.01 / no-opt-cu-delta-qp / no-aq-motion / no-hdr10 / no-hdr10-opt / no-dhdr10-opt / no-idr-recovery-sei / analysis-reuse-level=0 / analysis-save-reuse-level=0 / analysis-load-reuse-level=0 / scale-factor=0 / refine-intra=0 / refine-inter=0 / refine-mv=1 / refine-ctu-distortion=0 / no-limit-sao / ctu-info=0 / no-lowpass-dct / refine-analysis-type=0 / copy-pic=1 / max-ausize-factor=1.0 / no-dynamic-refine / no-single-sei / no-hevc-aq / no-svt / no-field / qp-adaptation-range=1.00 / no-scenecut-aware-qpconformance-window-offsets / right=0 / bottom=0 / decoder-max-rate=0 Default : Yes Forced : No Audio ID : 2 Format : AAC LC Format/Info : Advanced Audio Codec Low Complexity Codec ID : A_AAC-2 Duration : 23 min 40 s Bit rate : 128 kb/s Channel(s) : 2 channels Channel layout : L R Sampling rate : 44.1 kHz Frame rate : 43.066 FPS (1024 SPF) Compression mode : Lossy Stream size : 21.7 MiB (15%) Language : Japanese Default : Yes Forced : No Text ID : 3 Format : ASS Codec ID : S_TEXT/ASS Codec ID/Info : Advanced Sub Station Alpha Duration : 23 min 17 s Bit rate : 233 b/s Count of elements : 456 Compression mode : Lossless Stream size : 39.8 KiB (0%) Title : [SubsPlease] (bit improved TS) Language : English Default : Yes Forced : No # Let me know what you think

File list

  • Ep-01 The Teenage Girl Beneath the Lamplight.mkv (145.0 MiB)