( Dragontime ) My Hero Academia S05E02 1080p WEB-DL AAC 2.0 H.264 DUAL AUDIO :: Nyaa ISS

( Dragontime ) My Hero Academia S05E02 1080p WEB-DL AAC 2.0 H.264 DUAL AUDIO

Category:
Date:
2021-04-18 04:47 UTC
Submitter:
Seeders:
18
Information:
No information.
Leechers:
1
File size:
1.3 GiB
Completed:
148
Info hash:
bc282faa199fde758b83e1bb2fc49962e81ac8bd
Format : Matroska Format version : Version 4 / Version 2 File size : 1.34 GiB Duration : 23 min 58 s Overall bit rate : 7 982 kb/s Movie name : Watch My Hero Academia Season 5 Episode 90 Sub & Dub - Anime Simulcast - Funimation - 1920x1080 10027K_2021-04-18_12-02-18 Encoded date : UTC 2021-04-18 04:29:45 Writing application : mkvmerge v56.1.0 ('My Friend') 64-bit Writing library : libebml v1.4.2 + libmatroska v1.6.4 Cover : Yes Attachments : cover.jpg Video ID : 1 Format : AVC Format/Info : Advanced Video Codec Format profile : [email protected] Format settings, CABAC : Yes Format settings, ReFrames : 4 frames Codec ID : V_MPEG4/ISO/AVC Duration : 23 min 58 s Bit rate : 7 534 kb/s Nominal bit rate : 8 000 kb/s Width : 1 920 pixels Height : 1 080 pixels Display aspect ratio : 16:9 Frame rate mode : Constant Frame rate : 23.976 (24000/1001) FPS Color space : YUV Chroma subsampling : 4:2:0 Bit depth : 8 bits Scan type : Progressive Bits/(Pixel*Frame) : 0.152 Stream size : 1.26 GiB (94%) Writing library : x264 core 157 r2948 dada181 Encoding settings : cabac=1 / ref=1 / deblock=1:0:0 / analyse=0x3:0x113 / me=hex / subme=7 / psy=1 / psy_rd=1.00:0.00 / mixed_ref=0 / me_range=16 / chroma_me=1 / trellis=1 / 8x8dct=1 / cqm=0 / deadzone=21,11 / fast_pskip=1 / chroma_qp_offset=-2 / threads=24 / lookahead_threads=4 / sliced_threads=0 / nr=0 / decimate=1 / interlaced=0 / bluray_compat=0 / constrained_intra=0 / bframes=2 / b_pyramid=2 / b_adapt=1 / b_bias=0 / direct=1 / weightb=1 / open_gop=0 / weightp=2 / keyint=48 / keyint_min=4 / scenecut=40 / intra_refresh=0 / rc_lookahead=40 / rc=cbr / mbtree=1 / bitrate=8000 / ratetol=1.0 / qcomp=0.60 / qpmin=0 / qpmax=69 / qpstep=4 / vbv_maxrate=8000 / vbv_bufsize=24000 / nal_hrd=none / filler=0 / ip_ratio=1.40 / aq=1:1.00 Language : English Default : No Forced : No Audio #1 ID : 2 Format : AAC Format/Info : Advanced Audio Codec Format profile : LC Codec ID : A_AAC Duration : 23 min 58 s Bit rate : 256 kb/s Channel(s) : 2 channels Channel positions : Front: L R Sampling rate : 48.0 kHz Frame rate : 46.875 FPS (1024 spf) Compression mode : Lossy Delay relative to video : -86 ms Stream size : 43.9 MiB (3%) Language : English Default : Yes Forced : No Audio #2 ID : 3 Format : AAC Format/Info : Advanced Audio Codec Format profile : LC Codec ID : A_AAC Duration : 23 min 58 s Bit rate : 192 kb/s Channel(s) : 2 channels Channel positions : Front: L R Sampling rate : 48.0 kHz Frame rate : 46.875 FPS (1024 spf) Compression mode : Lossy Delay relative to video : -86 ms Stream size : 32.5 MiB (2%) Language : Japanese Default : No Forced : No

File list

  • My Hero Academia S05E02 Vestiges.mkv (1.3 GiB)