[hchcsen] Armored Trooper VOTOMS: Pailsen Files (OVA+Movie) (1080p) (BDRip) (EngSub) :: Nyaa ISS

[hchcsen] Armored Trooper VOTOMS: Pailsen Files (OVA+Movie) (1080p) (BDRip) (EngSub)

Category:
Date:
2021-06-10 20:24 UTC
Submitter:
Seeders:
17
Information:
No information.
Leechers:
5
File size:
20.8 GiB
Completed:
62
Info hash:
c1aa45f7e9425ba1f4f87a62b3cadf64e8382e9e
| |Sources | ------------- |:-------------:| | Video | [Moozzi2](https://nyaa.iss.one/view/1391817) | | Jp Audio |[Moozzi2](https://nyaa.iss.one/view/1391817)| | Eng Subtitles | [Shinsen-Subs](https://nyaa.iss.one/view/310239)| |Eng Subtitles Movie |[Shinsen-Subs](https://nyaa.iss.one/view/229396) | --- ### Note The series itself was hardsubbed so i got my hands on some Russian subtitles for timings and hand wrote Shinsen-Subs subtitles onto those Then i ran through them 2-3 times to fix as much improper grammar and as many typo's as i could find tho to be honest my grammar is kinda shit so i probably missed some of it ___ General Unique ID : 99577118250045979077611049201203475718 (0x4AE9DAFA45C24DDE983F01B1E5F8F506) Complete name : X:\Upload\Armored Trooper VOTOMS Pailsen Files\Armored Trooper VOTOMS Pailsen Files S01E01 River Crossing Operation.mkv Format : Matroska Format version : Version 4 / Version 2 File size : 1.48 GiB Duration : 25 min 43 s Overall bit rate : 8 252 kb/s Encoded date : UTC 2021-06-10 13:04:27 Writing application : mkvmerge v55.0.0 ('Waiting For Space') 64-bit Writing library : libebml v1.4.2 + libmatroska v1.6.4 Attachments : AVGARDM.TTF / CALIBRIB_0.TTF / calibriz_0.ttf / CandelaBold.otf / constanb.ttf / constanz_0.ttf / levantate_y_andate.ttf / YuGothM_0.ttc Video ID : 1 Format : HEVC Format/Info : High Efficiency Video Coding Format profile : Main [email protected]@High Codec ID : V_MPEGH/ISO/HEVC Duration : 25 min 43 s Bit rate : 4 132 kb/s Width : 1 920 pixels Height : 1 080 pixels Display aspect ratio : 16:9 Frame rate mode : Constant Frame rate : 23.976 (24000/1001) FPS Color space : YUV Chroma subsampling : 4:2:0 Bit depth : 10 bits Bits/(Pixel*Frame) : 0.083 Stream size : 760 MiB (50%) Writing library : x265 3.4+30-g6722fce1f:[Windows][GCC 10.2.0][64 bit] 10bit Encoding settings : cpuid=1111039 / frame-threads=5 / numa-pools=32 / wpp / no-pmode / no-pme / no-psnr / no-ssim / log-level=2 / input-csp=1 / input-res=1920x1080 / interlace=0 / level-idc=0 / high-tier=1 / uhd-bd=0 / ref=5 / no-allow-non-conformance / no-repeat-headers / annexb / no-aud / no-hrd / info / hash=0 / no-temporal-layers / no-open-gop / min-keyint=50 / keyint=360 / gop-lookahead=0 / bframes=8 / b-adapt=2 / b-pyramid / bframe-bias=0 / rc-lookahead=80 / lookahead-slices=4 / scenecut=40 / hist-scenecut=0 / radl=0 / no-splice / no-intra-refresh / ctu=32 / min-cu-size=8 / no-rect / no-amp / max-tu-size=32 / tu-inter-depth=2 / tu-intra-depth=2 / limit-tu=0 / rdoq-level=2 / dynamic-rd=0.00 / no-ssim-rd / signhide / no-tskip / nr-intra=0 / nr-inter=0 / no-constrained-intra / no-strong-intra-smoothing / max-merge=3 / limit-refs=2 / limit-modes / me=3 / subme=4 / merange=44 / temporal-mvp / no-frame-dup / no-hme / weightp / weightb / no-analyze-src-pics / deblock=-1:-1 / no-sao / no-sao-non-deblock / rd=5 / selective-sao=0 / no-early-skip / rskip / no-fast-intra / no-tskip-fast / no-cu-lossless / b-intra / no-splitrd-skip / rdpenalty=0 / psy-rd=1.20 / psy-rdoq=2.00 / no-rd-refine / no-lossless / cbqpoffs=-2 / crqpoffs=-2 / rc=crf / crf=16.0 / qcomp=0.70 / qpstep=4 / stats-write=0 / stats-read=0 / vbv-init=0.9 / min-vbv-fullness=50.0 / max-vbv-fullness=80.0 / crf-max=0.0 / crf-min=0.0 / ipratio=1.40 / pbratio=1.30 / aq-mode=1 / aq-strength=0.80 / cutree / zone-count=0 / no-strict-cbr / qg-size=32 / no-rc-grain / qpmax=69 / qpmin=0 / no-const-vbv / sar=0 / overscan=0 / videoformat=5 / range=0 / colorprim=2 / transfer=1 / colormatrix=2 / chromaloc=0 / display-window=0 / cll=0,0 / min-luma=0 / max-luma=1023 / log2-max-poc-lsb=8 / vui-timing-info / vui-hrd-info / slices=1 / no-opt-qp-pps / no-opt-ref-list-length-pps / no-multi-pass-opt-rps / scenecut-bias=0.05 / hist-threshold=0.03 / no-opt-cu-delta-qp / no-aq-motion / no-hdr10 / no-hdr10-opt / no-dhdr10-opt / no-idr-recovery-sei / analysis-reuse-level=0 / analysis-save-reuse-level=0 / analysis-load-reuse-level=0 / scale-factor=0 / refine-intra=0 / refine-inter=0 / refine-mv=1 / refine-ctu-distortion=0 / no-limit-sao / ctu-info=0 / no-lowpass-dct / refine-analysis-type=0 / copy-pic=1 / max-ausize-factor=1.0 / no-dynamic-refine / no-single-sei / no-hevc-aq / no-svt / no-field / qp-adaptation-range=1.00 / no-scenecut-aware-qpconformance-window-offsets / right=0 / bottom=0 / decoder-max-rate=0 / no-vbv-live-multi-pass Language : Japanese Default : Yes Forced : No Color range : Limited Transfer characteristics : BT.709 Audio ID : 2 Format : DTS XLL Format/Info : Digital Theater Systems Commercial name : DTS-HD Master Audio Codec ID : A_DTS Duration : 25 min 43 s Bit rate mode : Variable / Constant Bit rate : 4 033 kb/s / 1 509 kb/s Channel(s) : 6 channels Channel layout : C L R Ls Rs LFE Sampling rate : 48.0 kHz Frame rate : 93.750 FPS (512 SPF) Bit depth : 24 bits Compression mode : Lossless / Lossy Stream size : 742 MiB (49%) Language : Japanese Default : Yes Forced : No Text ID : 3 Format : ASS Codec ID : S_TEXT/ASS Codec ID/Info : Advanced Sub Station Alpha Duration : 25 min 31 s Bit rate : 96 b/s Count of elements : 297 Compression mode : Lossless Stream size : 18.0 KiB (0%) Language : English Default : Yes Forced : No

File list

  • Armored Trooper VOTOMS Pailsen Files
    • Armored Trooper VOTOMS Pailsen Files S01E01 River Crossing Operation.mkv (1.5 GiB)
    • Armored Trooper VOTOMS Pailsen Files S01E02 Galeade.mkv (1.2 GiB)
    • Armored Trooper VOTOMS Pailsen Files S01E03 Squad.mkv (1.2 GiB)
    • Armored Trooper VOTOMS Pailsen Files S01E04 The Valley of Death.mkv (1.1 GiB)
    • Armored Trooper VOTOMS Pailsen Files S01E05 Examination.mkv (1.1 GiB)
    • Armored Trooper VOTOMS Pailsen Files S01E06 Abnormal Skills.mkv (1.2 GiB)
    • Armored Trooper VOTOMS Pailsen Files S01E07 Sniping.mkv (1.0 GiB)
    • Armored Trooper VOTOMS Pailsen Files S01E08 Frozen Prison.mkv (1.2 GiB)
    • Armored Trooper VOTOMS Pailsen Files S01E09 Down Burst.mkv (1.3 GiB)
    • Armored Trooper VOTOMS Pailsen Files S01E10 Motion Tactics.mkv (1.1 GiB)
    • Armored Trooper VOTOMS Pailsen Files S01E11 The Immortal Unit.mkv (1.3 GiB)
    • Armored Trooper VOTOMS Pailsen Files S01E12 Monad.mkv (1.1 GiB)
    • Armored Trooper VOTOMS Pailsen Files The Movie (2009).mkv (6.5 GiB)