[hchcsen] Armored Trooper VOTOMS: Shining Heresy (1080p) (BDRip) (EngSub) :: Nyaa ISS

[hchcsen] Armored Trooper VOTOMS: Shining Heresy (1080p) (BDRip) (EngSub)

Category:
Date:
2021-06-10 20:29 UTC
Submitter:
Seeders:
12
Information:
No information.
Leechers:
3
File size:
4.1 GiB
Completed:
79
Info hash:
1d357fbbe7008759746002a62013f73dab51a5bd
| |Sources | ------------- |:-------------:| | Video | [Moozzi2](https://nyaa.iss.one/view/1391817) | | Jp Audio |[Moozzi2](https://nyaa.iss.one/view/1391817)| | Eng Subtitles | [BRO-Lord](https://nyaa.iss.one/view/310239)| --- ### Note Restyled to match G_P release of the main series ___ General Unique ID : 183568460518988195357986148586588644920 (0x8A19FFDEF5E8EE94C4DC3B0CF5B2A638) Complete name : X:\Upload\Armored Trooper VOTOMS Shining Heresy\Armored Trooper VOTOMS Shining Heresy S01E01 Return.mkv Format : Matroska Format version : Version 4 / Version 2 File size : 733 MiB Duration : 27 min 24 s Overall bit rate mode : Variable Overall bit rate : 3 739 kb/s Encoded date : UTC 2021-06-10 13:22:10 Writing application : mkvmerge v55.0.0 ('Waiting For Space') 64-bit Writing library : libebml v1.4.2 + libmatroska v1.6.4 Attachments : AVGARDM.TTF / AVGARDMI.TTF / BINNERN.TTF / BNKGOTHM.TTF / FE10016T.TTF / Gabrielle.ttf / levantate_y_andate.ttf / My_Worlds.ttf / Vera.ttf / VeraBd.ttf / VeraBI.ttf / VeraIt.ttf / VeraMoBd.ttf / VeraMoBI.ttf / VeraMoIt.ttf / VeraMono.ttf Video ID : 1 Format : HEVC Format/Info : High Efficiency Video Coding Format profile : Main [email protected]@Main Codec ID : V_MPEGH/ISO/HEVC Duration : 27 min 24 s Bit rate : 2 402 kb/s Width : 1 440 pixels Height : 1 080 pixels Display aspect ratio : 4:3 Frame rate mode : Constant Frame rate : 23.976 (24000/1001) FPS Color space : YUV Chroma subsampling : 4:2:0 Bit depth : 10 bits Bits/(Pixel*Frame) : 0.064 Stream size : 471 MiB (64%) Writing library : x265 3.4+30-g6722fce1f:[Windows][GCC 10.2.0][64 bit] 10bit Encoding settings : cpuid=1111039 / frame-threads=5 / numa-pools=32 / wpp / no-pmode / no-pme / no-psnr / no-ssim / log-level=2 / input-csp=1 / input-res=1440x1080 / interlace=0 / level-idc=0 / high-tier=1 / uhd-bd=0 / ref=5 / no-allow-non-conformance / no-repeat-headers / annexb / no-aud / no-hrd / info / hash=0 / no-temporal-layers / no-open-gop / min-keyint=50 / keyint=360 / gop-lookahead=0 / bframes=8 / b-adapt=2 / b-pyramid / bframe-bias=0 / rc-lookahead=80 / lookahead-slices=4 / scenecut=40 / hist-scenecut=0 / radl=0 / no-splice / no-intra-refresh / ctu=32 / min-cu-size=8 / no-rect / no-amp / max-tu-size=32 / tu-inter-depth=2 / tu-intra-depth=2 / limit-tu=0 / rdoq-level=2 / dynamic-rd=0.00 / no-ssim-rd / signhide / no-tskip / nr-intra=0 / nr-inter=0 / no-constrained-intra / no-strong-intra-smoothing / max-merge=3 / limit-refs=2 / limit-modes / me=3 / subme=4 / merange=44 / temporal-mvp / no-frame-dup / no-hme / weightp / weightb / no-analyze-src-pics / deblock=-1:-1 / no-sao / no-sao-non-deblock / rd=5 / selective-sao=0 / no-early-skip / rskip / no-fast-intra / no-tskip-fast / no-cu-lossless / b-intra / no-splitrd-skip / rdpenalty=0 / psy-rd=1.20 / psy-rdoq=2.00 / no-rd-refine / no-lossless / cbqpoffs=-2 / crqpoffs=-2 / rc=crf / crf=17.0 / qcomp=0.70 / qpstep=4 / stats-write=0 / stats-read=0 / vbv-init=0.9 / min-vbv-fullness=50.0 / max-vbv-fullness=80.0 / crf-max=0.0 / crf-min=0.0 / ipratio=1.40 / pbratio=1.30 / aq-mode=1 / aq-strength=0.80 / cutree / zone-count=0 / no-strict-cbr / qg-size=32 / no-rc-grain / qpmax=69 / qpmin=0 / no-const-vbv / sar=0 / overscan=0 / videoformat=5 / range=0 / colorprim=2 / transfer=1 / colormatrix=2 / chromaloc=0 / display-window=0 / cll=0,0 / min-luma=0 / max-luma=1023 / log2-max-poc-lsb=8 / vui-timing-info / vui-hrd-info / slices=1 / no-opt-qp-pps / no-opt-ref-list-length-pps / no-multi-pass-opt-rps / scenecut-bias=0.05 / hist-threshold=0.03 / no-opt-cu-delta-qp / no-aq-motion / no-hdr10 / no-hdr10-opt / no-dhdr10-opt / no-idr-recovery-sei / analysis-reuse-level=0 / analysis-save-reuse-level=0 / analysis-load-reuse-level=0 / scale-factor=0 / refine-intra=0 / refine-inter=0 / refine-mv=1 / refine-ctu-distortion=0 / no-limit-sao / ctu-info=0 / no-lowpass-dct / refine-analysis-type=0 / copy-pic=1 / max-ausize-factor=1.0 / no-dynamic-refine / no-single-sei / no-hevc-aq / no-svt / no-field / qp-adaptation-range=1.00 / no-scenecut-aware-qpconformance-window-offsets / right=0 / bottom=0 / decoder-max-rate=0 / no-vbv-live-multi-pass Language : Japanese Default : Yes Forced : No Color range : Limited Transfer characteristics : BT.709 Audio ID : 2 Format : FLAC Format/Info : Free Lossless Audio Codec Codec ID : A_FLAC Duration : 27 min 24 s Bit rate mode : Variable Bit rate : 1 332 kb/s Channel(s) : 2 channels Channel layout : L R Sampling rate : 48.0 kHz Frame rate : 11.719 FPS (4096 SPF) Bit depth : 24 bits Compression mode : Lossless Stream size : 261 MiB (36%) Writing library : libFLAC 1.3.2 (UTC 2017-01-01) Language : Japanese Default : Yes Forced : No Text ID : 3 Format : ASS Codec ID : S_TEXT/ASS Codec ID/Info : Advanced Sub Station Alpha Duration : 27 min 15 s Bit rate : 67 b/s Count of elements : 218 Compression mode : Lossless Stream size : 13.5 KiB (0%) Language : English Default : Yes Forced : No

File list

  • Armored Trooper VOTOMS Shining Heresy
    • Armored Trooper VOTOMS Shining Heresy S01E01 Return.mkv (733.2 MiB)
    • Armored Trooper VOTOMS Shining Heresy S01E02 Alegium.mkv (797.7 MiB)
    • Armored Trooper VOTOMS Shining Heresy S01E03 Pilgrimage.mkv (871.0 MiB)
    • Armored Trooper VOTOMS Shining Heresy S01E04 Boundary.mkv (903.8 MiB)
    • Armored Trooper VOTOMS Shining Heresy S01E05 The Untouchable One.mkv (866.0 MiB)