[NRN] Cowboy Bebop Knockin on Heavens Door 2001 1080p 10Bit BDRip AAC 5.1 X265 Dual Audio :: Nyaa ISS

[NRN] Cowboy Bebop Knockin on Heavens Door 2001 1080p 10Bit BDRip AAC 5.1 X265 Dual Audio

Category:
Date:
2021-07-28 12:01 UTC
Submitter:
Seeders:
4
Information:
No information.
Leechers:
1
File size:
2.4 GiB
Completed:
65
Info hash:
608c8e8086fdf645ee855263ef20580ad187302e
![](https://s6.gifyu.com/images/taIcAPqM.gif) ## This torrent is web seeded, so download the torrent via .torrent file General Format version : Version 4 File size : 2.39 GiB Duration : 1 h 55 min Overall bit rate : 2 958 kb/s Movie name : [NRN] Cowboy Bebop S00E01 Knockin.on Heavens Door 22.5 1080p 10Bit BluRip AAC 5.1 X265 Dual Audio Video ID : 1 Format : HEVC Format/Info : High Efficiency Video Coding Format profile : Main [email protected]@Main Codec ID : V_MPEGH/ISO/HEVC Duration : 1 h 55 min Bit rate : 1 844 kb/s Width : 1 916 pixels Height : 1 040 pixels Display aspect ratio : 1.85:1 Frame rate mode : Variable Frame rate : 23.976 (23976/1000) FPS Original frame rate : 23.976 (24000/1001) FPS Color space : YUV Chroma subsampling : 4:2:0 Bit depth : 10 bits Bits/(Pixel*Frame) : 0.039 Stream size : 1.48 GiB (62%) Language : Japanese Default : Yes Forced : No Color range : Limited Color primaries : BT.709 Transfer characteristics : BT.709 Matrix coefficients : BT.709 Audio #1 ID : 2 Format : AAC LC Format/Info : Advanced Audio Codec Low Complexity Codec ID : A_AAC-2 Duration : 1 h 55 min Bit rate : 140 kb/s Channel(s) : 2 channels Channel layout : L R Sampling rate : 48.0 kHz Frame rate : 46.875 FPS (1024 SPF) Compression mode : Lossy Delay relative to video : 11 s 400 ms Stream size : 115 MiB (5%) Title : AAC 2.0 [BluDragon] Writing library : Lavc58.134.100 libfdk_aac Language : English Default : Yes Forced : No Audio #2 ID : 3 Format : AAC LC Format/Info : Advanced Audio Codec Low Complexity Codec ID : A_AAC-2 Duration : 1 h 55 min Bit rate : 489 kb/s Channel(s) : 6 channels Channel layout : C L R Ls Rs LFE Sampling rate : 48.0 kHz Frame rate : 46.875 FPS (1024 SPF) Compression mode : Lossy Delay relative to video : 3 s 670 ms Stream size : 402 MiB (16%) Title : AAC 5.1 [REVO] Writing library : Lavc58.134.100 libfdk_aac Language : English Default : No Forced : No Audio #3 ID : 4 Format : AAC LC Format/Info : Advanced Audio Codec Low Complexity Codec ID : A_AAC-2 Duration : 1 h 55 min Bit rate : 489 kb/s Channel(s) : 6 channels Channel layout : C L R Ls Rs LFE Sampling rate : 48.0 kHz Frame rate : 46.875 FPS (1024 SPF) Compression mode : Lossy Stream size : 404 MiB (17%) Title : AAC 5.1 [REVO] Writing library : Lavc58.134.100 libfdk_aac Language : Japanese Default : No Forced : No Text #1 Format : UTF-8 Title : বাংলা by AsadujJaman Language : Bengali Default : Yes Forced : No Text #2 Format : ASS Title : Signs [CTR] Language : English Default : No Forced : No Text #3 Format : ASS Title : Subtitles [REVO] Language : Japanese Default : No Forced : No Text #4 Format : ASS Title : Subtitles (Colour Coded) [REVO] Language : Japanese Default : No Forced : No Menu 00:00:00.000 : :Chapter 1 00:06:56.600 : :Chapter 2 00:09:01.533 : :Chapter 3 00:12:15.667 : :Chapter 4 00:17:57.300 : :Chapter 5 00:20:03.000 : :Chapter 6 00:27:50.333 : :Chapter 7 00:29:52.867 : :Chapter 8 00:32:56.033 : :Chapter 9 00:35:51.367 : :Chapter 10 00:37:38.700 : :Chapter 11 00:39:29.033 : :Chapter 12 00:40:46.367 : :Chapter 13 00:45:18.700 : :Chapter 14 00:47:14.200 : :Chapter 15 00:49:41.167 : :Chapter 16 00:55:30.533 : :Chapter 17 01:00:53.067 : :Chapter 18 01:06:47.967 : :Chapter 19 01:10:36.167 : :Chapter 20 01:18:13.333 : :Chapter 21 01:22:08.033 : :Chapter 22 01:26:08.867 : :Chapter 23 01:30:29.000 : :Chapter 24 01:33:11.200 : :Chapter 25 01:41:26.700 : :Chapter 26 01:44:02.633 : :Chapter 27 01:47:37.133 : :Chapter 28 ## Screenshots Source vs Encoded Source [![](https://i.ibb.co/F8d0z5J/Cowboy-Bebop-S00-E01-Knockin-on-Heavens-Door-22-5-1080p-Hi10p-Blu-Ray-FLAC5-1-x264-22-AE84-B9-mkv-SS.png) ](https://ibb.co/frTnHkt) Encoded [![](https://i.ibb.co/c1Btx4M/NRN-Cowboy-Bebop-Knockin-on-Heavens-Door-2001-1080p-10-Bit-BDRip-AAC-5-1-X265-Dual-Audio-mkv-SS2m.png) ](https://ibb.co/R9FP7RZ) Source [![](https://i.ibb.co/thpNWV8/Cowboy-Bebop-S00-E01-Knockin-on-Heavens-Door-22-5-1080p-Hi10p-Blu-Ray-FLAC5-1-x264-22-AE84-B9-mkv-SS.png) ](https://ibb.co/ZJzwkqW) Encoded [![](https://i.ibb.co/8x42xsV/NRN-Cowboy-Bebop-Knockin-on-Heavens-Door-2001-1080p-10-Bit-BDRip-AAC-5-1-X265-Dual-Audio-mkv-SS4m.png) ](https://ibb.co/WzpFz51) Source [![](https://i.ibb.co/yy7Cqkn/Cowboy-Bebop-S00-E01-Knockin-on-Heavens-Door-22-5-1080p-Hi10p-Blu-Ray-FLAC5-1-x264-22-AE84-B9-mkv-SS.png) ](https://ibb.co/MVQH71D) Encoded [![](https://i.ibb.co/6mwJDr2/NRN-Cowboy-Bebop-Knockin-on-Heavens-Door-2001-1080p-10-Bit-BDRip-AAC-5-1-X265-Dual-Audio-mkv-SS16m.png) ](https://ibb.co/mGTFhbm) Source [![](https://i.ibb.co/Pt3M4Rm/Cowboy-Bebop-S00-E01-Knockin-on-Heavens-Door-22-5-1080p-Hi10p-Blu-Ray-FLAC5-1-x264-22-AE84-B9-mkv-SS.png) ](https://ibb.co/1bhMK3v) Encoded [![](https://i.ibb.co/MD3xKxZ/NRN-Cowboy-Bebop-Knockin-on-Heavens-Door-2001-1080p-10-Bit-BDRip-AAC-5-1-X265-Dual-Audio-mkv-SS32m.png) ](https://ibb.co/Gvb4G4n) Source [![](https://i.ibb.co/JRyrxpC/Cowboy-Bebop-S00-E01-Knockin-on-Heavens-Door-22-5-1080p-Hi10p-Blu-Ray-FLAC5-1-x264-22-AE84-B9-mkv-SS.png) ](https://ibb.co/27sc8M5) Encoded [![](https://i.ibb.co/BPJ0mNf/NRN-Cowboy-Bebop-Knockin-on-Heavens-Door-2001-1080p-10-Bit-BDRip-AAC-5-1-X265-Dual-Audio-mkv-SS64m.png) ](https://ibb.co/j5YndR8)

File list

  • [NRN]Cowboy.Bebop.Knockin.on.Heavens.Door.2001.1080p.10Bit.BDRip.AAC.5.1.X265.Dual.Audio.mkv (2.4 GiB)