[FKU-Raws] 疾暴执行部 OVA 2 / Wild Adapter OVA 2 / ワイルドアダプター OVA 2 (2012 DVDRip x265 704x396 AC3 JPN) :: Nyaa ISS

[FKU-Raws] 疾暴执行部 OVA 2 / Wild Adapter OVA 2 / ワイルドアダプター OVA 2 (2012 DVDRip x265 704x396 AC3 JPN)

Category:
Date:
2021-12-05 22:15 UTC
Submitter:
Anonymous
Seeders:
0
Information:
Leechers:
1
File size:
573.2 MiB
Completed:
44
Info hash:
6be492dc1319afe976ef5398de7e414d002f6491
[FKU-Raws] 疾暴执行部 OVA 2 / Wild Adapter OVA 2 / ワイルドアダプター OVA 2 (2012 DVDRip x265 704x396 AC3 JPN) https://anidb.net/anime/9105 General Unique ID : 158638756961537165206552420803193828519 (0x7758B696B78F32184BD3868EFD7F74A7) Complete name : [FKU-Raws] Wild Adapter - OVA 2 [x265 AC3] [JPN] [68CC46F0].mkv Format : Matroska Format version : Version 2 File size : 573 MiB Duration : 29 min 14 s Overall bit rate : 2 740 kb/s Encoded date : UTC 2021-12-05 21:49:43 Writing application : mkvmerge v42.0.0 ('Overtime') 64-bit Writing library : libebml v1.3.10 + libmatroska v1.5.2 Video ID : 1 Format : HEVC Format/Info : High Efficiency Video Coding Format profile : Main [email protected]@Main Codec ID : V_MPEGH/ISO/HEVC Duration : 29 min 14 s Bit rate : 1 201 kb/s Width : 704 pixels Height : 396 pixels Display aspect ratio : 16:9 Frame rate mode : Constant Frame rate : 47.952 (47952/1000) FPS Original frame rate : 47.952 (48000/1001) FPS Color space : YUV Chroma subsampling : 4:2:0 Bit depth : 10 bits Bits/(Pixel*Frame) : 0.090 Stream size : 251 MiB (44%) Writing library : x265 3.0_Au+4-dcbec33bfb0f:[Windows][GCC 8.2.1][64 bit] 10bit Encoding settings : cpuid=1111039 / frame-threads=9 / numa-pools=12 / wpp / no-pmode / no-pme / no-psnr / no-ssim / log-level=2 / input-csp=1 / input-res=704x396 / interlace=0 / total-frames=84144 / level-idc=0 / high-tier=1 / uhd-bd=0 / ref=4 / no-allow-non-conformance / no-repeat-headers / annexb / no-aud / no-hrd / info / hash=0 / no-temporal-layers / no-open-gop / min-keyint=1 / keyint=360 / gop-lookahead=0 / bframes=6 / b-adapt=2 / b-pyramid / bframe-bias=0 / rc-lookahead=80 / lookahead-slices=0 / scenecut=40 / radl=0 / no-splice / no-intra-refresh / ctu=32 / min-cu-size=8 / no-rect / no-amp / max-tu-size=32 / tu-inter-depth=1 / tu-intra-depth=1 / limit-tu=0 / rdoq-level=2 / dynamic-rd=0.00 / no-ssim-rd / signhide / no-tskip / nr-intra=0 / nr-inter=0 / no-constrained-intra / no-strong-intra-smoothing / max-merge=3 / limit-refs=3 / limit-modes / me=3 / subme=5 / merange=57 / temporal-mvp / weightp / weightb / no-analyze-src-pics / deblock=-1:-1 / no-sao / no-sao-non-deblock / rd=5 / no-early-skip / rskip / no-fast-intra / no-tskip-fast / no-cu-lossless / b-intra / no-splitrd-skip / rdpenalty=0 / psy-rd=2.00 / psy-rdoq=1.00 / no-rd-refine / no-lossless / cbqpoffs=-2 / crqpoffs=-2 / rc=crf / crf=18.0 / qcomp=0.65 / qpstep=4 / stats-write=0 / stats-read=0 / ipratio=1.40 / pbratio=1.20 / aq-mode=2 / aq-strength=0.80 / cutree / zone-count=0 / no-strict-cbr / qg-size=8 / no-rc-grain / qpmax=69 / qpmin=0 / no-const-vbv / sar=1 / overscan=0 / videoformat=5 / range=0 / colorprim=2 / transfer=2 / colormatrix=2 / chromaloc=0 / display-window=0 / max-cll=0,0 / min-luma=0 / max-luma=1023 / log2-max-poc-lsb=8 / vui-timing-info / vui-hrd-info / slices=1 / no-opt-qp-pps / no-opt-ref-list-length-pps / no-multi-pass-opt-rps / scenecut-bias=0.05 / no-opt-cu-delta-qp / no-aq-motion / no-hdr / no-hdr-opt / no-dhdr10-opt / no-idr-recovery-sei / analysis-reuse-level=5 / scale-factor=0 / refine-intra=0 / refine-inter=0 / refine-mv=0 / refine-ctu-distortion=0 / no-limit-sao / ctu-info=0 / no-lowpass-dct / refine-analysis-type=0 / copy-pic=1 / max-ausize-factor=1.0 / no-dynamic-refine / no-single-sei / no-hevc-aq / qp-adaptation-range=1.00 Default : Yes Forced : No Audio ID : 2 Format : PCM Format settings : Little / Signed Codec ID : A_PCM/INT/LIT Duration : 29 min 14 s Bit rate mode : Constant Bit rate : 1 536 kb/s Channel(s) : 2 channels Sampling rate : 48.0 kHz Frame rate : 32.001 FPS (1500 SPF) Bit depth : 16 bits Stream size : 321 MiB (56%) Language : Japanese Default : Yes Forced : No Menu 00:00:00.000 : en:Chapter 01 00:01:20.033 : en:Chapter 02 00:02:50.033 : en:Chapter 03 00:15:50.367 : en:Chapter 04 00:26:38.002 : en:Chapter 05 00:28:08.002 : en:Chapter 06

File list

  • [FKU-Raws] Wild Adapter - OVA 2 [x265 AC3] [JPN] [68CC46F0].mkv (573.2 MiB)
Thx! Can you apload episode 1?