[Anime Land] Girls und Panzer das Finale 04 (BDRip 1080p HEVC EAC3) RAW [660C7764].mkv :: Nyaa ISS

[Anime Land] Girls und Panzer das Finale 04 (BDRip 1080p HEVC EAC3) RAW [660C7764].mkv

Category:
Date:
2024-04-02 15:12 UTC
Submitter:
Seeders:
13
Information:
No information.
Leechers:
2
File size:
3.1 GiB
Completed:
707
Info hash:
ed83080bfb7d3616a14df8610cf6276ee4921ace
![alt text](https://s4.anilist.co/file/anilistcdn/media/anime/cover/large/bx132420-UZD0YfVG8ToI.jpg "Logo Title Text 1") ![alt text](https://media.fotki.com/2v2eFrkfCxBcWUV.jpg "Logo Title Text 1") ```javascript General Unique ID : 24600034066084676138843942470993366360 (0x1281CB5244F9453F12CFD445F8D4CD58) Complete name : [Anime Land] Girls und Panzer das Finale 04 (BDRip 1080p HEVC EAC3) RAW [660C7764].mkv Format : Matroska Format version : Version 4 File size : 3.06 GiB Duration : 54 min 6 s Overall bit rate : 8 093 kb/s Frame rate : 23.976 FPS Movie name : [Anime Land] Girls und Panzer das Finale 04 (BDRip 1080p HEVC EAC3) RAW [Encode By Omar] Encoded date : 2024-04-02 14:56:29 UTC Writing application : mkvmerge v83.0 ('Circle Of Friends') 64-bit Writing library : libebml v1.4.5 + libmatroska v1.7.1 Video ID : 1 Format : HEVC Format/Info : High Efficiency Video Coding Format profile : Main [email protected]@High Codec ID : V_MPEGH/ISO/HEVC Duration : 54 min 6 s Bit rate : 7 323 kb/s Width : 1 920 pixels Height : 1 080 pixels Display aspect ratio : 16:9 Frame rate mode : Constant Frame rate : 23.976 (24000/1001) FPS Color space : YUV Chroma subsampling : 4:2:0 Bit depth : 10 bits Bits/(Pixel*Frame) : 0.147 Stream size : 2.77 GiB (90%) Title : BDRip By Omar Writing library : x265 3.5+156+43-607e8223a:[Windows][MSVC 1928][64 bit] 10bit Encoding settings : cpuid=1111039 / frame-threads=5 / numa-pools=32,32 / wpp / no-pmode / no-pme / no-psnr / no-ssim / log-level=2 / input-csp=1 / input-res=1920x1080 / interlace=0 / total-frames=77832 / level-idc=51 / high-tier=1 / uhd-bd=0 / ref=5 / no-allow-non-conformance / no-repeat-headers / annexb / no-aud / no-eob / no-eos / no-hrd / info / hash=0 / temporal-layers=0 / open-gop / min-keyint=23 / keyint=250 / gop-lookahead=0 / bframes=16 / b-adapt=2 / b-pyramid / bframe-bias=0 / rc-lookahead=40 / lookahead-slices=0 / scenecut=40 / no-hist-scenecut / radl=0 / no-splice / no-intra-refresh / ctu=64 / min-cu-size=8 / rect / amp / max-tu-size=32 / tu-inter-depth=3 / tu-intra-depth=3 / limit-tu=0 / rdoq-level=2 / dynamic-rd=0.00 / no-ssim-rd / signhide / no-tskip / nr-intra=0 / nr-inter=0 / no-constrained-intra / strong-intra-smoothing / max-merge=5 / limit-refs=0 / no-limit-modes / me=3 / subme=4 / merange=57 / temporal-mvp / no-frame-dup / no-hme / weightp / weightb / no-analyze-src-pics / deblock=-3:-3 / sao / no-sao-non-deblock / rd=6 / selective-sao=4 / no-early-skip / rskip / no-fast-intra / no-tskip-fast / no-cu-lossless / b-intra / no-splitrd-skip / rdpenalty=0 / psy-rd=2.00 / psy-rdoq=1.00 / no-rd-refine / no-lossless / cbqpoffs=0 / crqpoffs=0 / rc=crf / crf=16.0 / qcomp=0.60 / qpstep=4 / stats-write=0 / stats-read=0 / vbv-maxrate=160000 / vbv-bufsize=160000 / vbv-init=0.9 / min-vbv-fullness=50.0 / max-vbv-fullness=80.0 / crf-max=0.0 / crf-min=0.0 / ipratio=1.40 / pbratio=1.30 / aq-mode=2 / aq-strength=1.00 / aq-strength-edge=1.00 / aq-bias-strength=1.00 / aq-bias-strength-edge=1.00 / no-aq-fast-edge / cutree / zone-count=0 / no-strict-cbr / qg-size=32 / no-rc-grain / qpmax=69 / qpmin=0 / no-const-vbv / sar=0 / overscan=0 / videoformat=5 / range=0 / colorprim=2 / transfer=2 / colormatrix=2 / chromaloc=0 / display-window=0 / cll=0,0 / min-luma=0 / max-luma=1023 / log2-max-poc-lsb=8 / vui-timing-info / vui-hrd-info / slices=1 / no-opt-qp-pps / no-opt-ref-list-length-pps / no-multi-pass-opt-rps / scenecut-bias=0.05 / no-opt-cu-delta-qp / no-aq-motion / aq-auto=0 / no-hdr10 / no-hdr10-opt / no-dhdr10-opt / no-idr-recovery-sei / analysis-reuse-level=0 / analysis-save-reuse-level=0 / analysis-load-reuse-level=0 / scale-factor=0 / refine-intra=0 / refine-inter=0 / refine-mv=1 / refine-ctu-distortion=0 / no-limit-sao / ctu-info=0 / no-lowpass-dct / refine-analysis-type=0 / copy-pic=1 / max-ausize-factor=1.0 / no-dynamic-refine / no-single-sei / no-hevc-aq / no-svt / no-field / qp-adaptation-range=1.00 / scenecut-aware-qp=0 / conformance-window-offsets / right=0 / bottom=0 / decoder-max-rate=0 / no-vbv-live-multi-pass / no-mcstf / no-sbrc Language : Japanese Default : Yes Forced : No Audio ID : 2 Format : E-AC-3 Format/Info : Enhanced AC-3 Commercial name : Dolby Digital Plus Codec ID : A_EAC3 Duration : 54 min 6 s Bit rate mode : Constant Bit rate : 768 kb/s Channel(s) : 6 channels Channel layout : L R C LFE Ls Rs Sampling rate : 48.0 kHz Frame rate : 31.250 FPS (1536 SPF) Compression mode : Lossy Stream size : 297 MiB (9%) Title : EAC3 768 Kbps 5.1 By Omar Language : Japanese Service kind : Complete Main Default : Yes Forced : No Menu 00:00:00.000 : ja:Chapter 01 00:00:46.046 : ja:Chapter 02 00:02:33.153 : ja:Chapter 03 00:38:21.841 : ja:Chapter 04 00:40:39.729 : ja:Chapter 05 00:51:58.115 : ja:Chapter 06 00:53:53.230 : ja:Chapter 07 ```

File list

  • [Anime Land] Girls und Panzer das Finale 04 (BDRip 1080p HEVC EAC3) RAW [660C7764].mkv (3.1 GiB)
Hi, this is off-topic but Duel Masters Win just ended and entering an indefinite hiatus. May I ask if you have any plans for batches of the entirety of Win's saga now that it seems like a good timing for one?