[MagicStar] Karakai Jouzu no Takagi-san EP05 [WEBDL] [1080p] [Netflix] [JPN_ENG_CHT_SUB] [V0] :: Nyaa ISS

[MagicStar] Karakai Jouzu no Takagi-san EP05 [WEBDL] [1080p] [Netflix] [JPN_ENG_CHT_SUB] [V0]

Category:
Date:
2024-04-15 17:48 UTC
Submitter:
Seeders:
13
File size:
974.5 MiB
Completed:
1574
Info hash:
5f598a9f519beb3f26c55e1e74d2343107237e05
HD 1080p from Netflix. Japanese, English and Chinese subtitles added. ************** Support Us Ali (Zhifubao / QR code): https://i.ibb.co/FWV2ggm/1660626347125.png PayPalMe: https://www.paypal.com/paypalme/sakuragikenji BTC (USDT): 19y5NF6voysif7PeJLv86Hf186ZS1i4rwu ETH: 0x807B4eec355Cfa65500BeE65A992a9a0d8432697 LTC: LUC2dTQkte7muv5oUUuRNJimLJvi9pgZUQ ************** ![alt text](https://i.ibb.co/bJ8KG6G/Karakai-umai-takagisan.jpg) ![alt text](https://i.ibb.co/5nBGctT/Karakai-Jouzu-no-Takagi-san-EP05-1080p-NF-WEB-DL-DDP2-0-H-264-V0-Magic-Star-mkv.jpg) ``` General Unique ID : 249196120336178855428957259101030774023 (0xBB796D510E2E6C21DC676F7B7882F507) Complete name : Karakai.Jouzu.no.Takagi.san.EP05.1080p.NF.WEB-DL.DDP2.0.H.264.V0-MagicStar.mkv Format : Matroska Format version : Version 4 File size : 974 MiB Duration : 22 min 24 s Overall bit rate mode : Constant Overall bit rate : 6 078 kb/s Frame rate : 23.976 FPS Encoded date : 2024-04-15 17:43:44 UTC Writing application : mkvmerge v50.0.0 ('Awakenings') 64-bit Writing library : libebml v1.4.0 + libmatroska v1.6.2 Cover : Yes Attachments : cover.png Video ID : 1 Format : AVC Format/Info : Advanced Video Codec Format profile : High@L4 Format settings : CABAC / 1 Ref Frames Format settings, CABAC : Yes Format settings, Reference fra : 1 frame Format settings, GOP : M=1, N=24 Codec ID : V_MPEG4/ISO/AVC Duration : 22 min 24 s Bit rate mode : Constant Bit rate : 5 983 kb/s Width : 1 920 pixels Height : 1 080 pixels Display aspect ratio : 16:9 Frame rate mode : Constant Frame rate : 23.976 (24000/1001) FPS Color space : YUV Chroma subsampling : 4:2:0 Bit depth : 8 bits Scan type : Progressive Bits/(Pixel*Frame) : 0.120 Stream size : 953 MiB (98%) Default : Yes Forced : No Color range : Limited Color primaries : BT.709 Transfer characteristics : BT.709 Matrix coefficients : BT.709 Audio ID : 2 Format : E-AC-3 Format/Info : Enhanced AC-3 Commercial name : Dolby Digital Plus Codec ID : A_EAC3 Duration : 22 min 24 s Bit rate mode : Constant Bit rate : 128 kb/s Channel(s) : 2 channels Channel layout : L R Sampling rate : 48.0 kHz Frame rate : 31.250 FPS (1536 SPF) Compression mode : Lossy Stream size : 20.5 MiB (2%) Title : 日本語 [オリジナル] Language : Japanese Service kind : Complete Main Default : Yes Forced : No ```

File list

  • [MagicStar] Karakai Jouzu no Takagi-san EP05 [WEBDL] [1080p] [Netflix] [JPN_ENG_CHT_SUB] [V0]
    • Karakai.Jouzu.no.Takagi.san.EP05.1080p.NF.WEB-DL.DDP2.0.H.264.V0-MagicStar.Cht.srt (19.0 KiB)
    • Karakai.Jouzu.no.Takagi.san.EP05.1080p.NF.WEB-DL.DDP2.0.H.264.V0-MagicStar.Eng.srt (19.6 KiB)
    • Karakai.Jouzu.no.Takagi.san.EP05.1080p.NF.WEB-DL.DDP2.0.H.264.V0-MagicStar.Jpn.srt (25.5 KiB)
    • Karakai.Jouzu.no.Takagi.san.EP05.1080p.NF.WEB-DL.DDP2.0.H.264.V0-MagicStar.mkv (974.4 MiB)
Thanks so much! Great.
No episode this week? Thanks.